<?xml version="1.0" standalone="no"?>
<!DOCTYPE svg PUBLIC "-//W3C//DTD SVG 1.1//EN" "http://www.w3.org/Graphics/SVG/1.1/DTD/svg11.dtd" >
<svg xmlns="http://www.w3.org/2000/svg" xmlns:xlink="http://www.w3.org/1999/xlink" version="1.1">
<metadata></metadata>
<defs>
<font id="volvobroadregular" horiz-adv-x="729" >
<font-face units-per-em="2048" ascent="1792" descent="-256" />
<missing-glyph horiz-adv-x="387" />
<glyph horiz-adv-x="0" />
<glyph horiz-adv-x="682" />
<glyph unicode=" "  horiz-adv-x="387" />
<glyph unicode="&#x09;" horiz-adv-x="387" />
<glyph unicode="&#xa0;" horiz-adv-x="387" />
<glyph unicode="!" horiz-adv-x="352" d="M57 1280q-1 86 64 86h108q67 0 66 -88l-8 -840q-1 -84 -62 -84h-86q-41 0 -56 22q-11 17 -11 62zM61 92v58q0 53 11 70q12 22 53 22h106q41 0 54 -22q10 -17 10 -70v-58q0 -53 -10 -70q-13 -22 -54 -22h-106q-41 0 -53 22q-11 17 -11 70z" />
<glyph unicode="&#x22;" horiz-adv-x="512" d="M14 1309q-8 57 39 57h129q52 0 43 -57l-41 -275q-6 -43 -45 -43h-41q-39 0 -45 43zM287 1309q-9 57 43 57h129q47 0 39 -57l-39 -275q-6 -43 -45 -43h-41q-39 0 -45 43z" />
<glyph unicode="#" horiz-adv-x="1307" d="M-3 434q0 10 3 23l18 59q16 51 56 51h245l74 234h-233q-41 0 -41 29q0 9 4 22l18 59q17 54 56 54h249l119 370q12 37 66 37h61q47 0 47 -33q0 -9 -4 -20l-112 -354h239l119 370q12 37 66 37h63q45 0 45 -32q0 -9 -4 -21l-113 -354h232q40 0 40 -29q0 -10 -3 -23l-19 -61 q-15 -51 -55 -51h-246l-76 -234h236q41 0 41 -29q0 -9 -4 -22l-19 -59q-16 -54 -55 -54h-250l-117 -366q-11 -37 -67 -37h-62q-46 0 -46 33q0 8 3 18l113 352h-240l-116 -366q-12 -37 -68 -37h-61q-47 0 -47 33q0 8 4 18l112 352h-231q-40 0 -40 31zM496 567h239l76 234 h-242z" />
<glyph unicode="$" horiz-adv-x="604" d="M20 1081q0 215 199 228v102q0 39 29 39h94q17 0 23 -6t6 -27v-108h98q53 0 53 -68v-82q0 -72 -59 -72h-166q-59 0 -59 -54q0 -26 16 -56l203 -373q114 -211 114 -350q0 -201 -200 -201v-107q0 -37 -12 -41q-5 -2 -15 -2h-98q-27 0 -27 39v111h-131q-34 0 -47.5 14 t-13.5 64v66q0 60 22 72q12 5 37 5h195q50 0 50 49q0 22 -12 44l-210 401q-89 168 -89 313z" />
<glyph unicode="%" horiz-adv-x="1137" d="M12 1020q0 201 45 277q51 87 199 87t199 -87q45 -76 45 -277q0 -215 -53 -301t-191 -86q-137 0 -190.5 86.5t-53.5 300.5zM194 880q9 -92 64 -92q53 0 60 93q-3 -37 -3 129q0 147 -7 177q-9 38 -50 38q-42 0 -52 -38q-9 -34 -9 -177q0 -156 -3 -130zM290 17q0 9 5 26 l403 1292q11 33 45 33h62q40 0 40 -22q0 -8 -3 -19l-412 -1300q-10 -30 -35 -30h-67q-38 0 -38 20zM637 360q0 202 44 277q52 88 200 88q147 0 199 -88q44 -75 44 -277q0 -214 -52 -299q-54 -87 -191 -87q-138 0 -192 87q-52 85 -52 299zM819 220q8 -91 64 -91q53 0 60 93 q-3 -37 -3 128q0 147 -7 178q-9 37 -50 37q-42 0 -52 -36t-10 -179q0 -155 -2 -130z" />
<glyph unicode="&#x26;" horiz-adv-x="807" d="M35 422q0 160 29 227q27 60 96 78q-59 23 -84 82q-31 76 -31 254q0 196 78 261q50 42 172 42h303q72 0 72 -68v-108q0 -66 -80 -66h-232q-79 0 -79 -69v-142q0 -79 83 -79h91v38q0 64 61 64h117q63 0 63 -62v-43h39q64 0 64 -61v-117q0 -65 -60 -65h-43v-207 q0 -239 -54 -310q-63 -82 -282 -82q-201 0 -268 104q-55 86 -55 329zM279 319q0 -88 86 -88q88 0 88 93v268h-115q-59 0 -59 -70v-203z" />
<glyph unicode="'" horiz-adv-x="238" d="M14 1309q-7 57 39 57h129q50 0 41 -57l-41 -275q-6 -43 -45 -43h-41q-39 0 -45 43z" />
<glyph unicode="(" horiz-adv-x="332" d="M39 664q0 325 90 748q8 39 19 50q13 16 49 16h59q33 0 41 -11t2 -54q-47 -342 -47 -749q0 -408 47 -749q6 -43 -2 -53.5t-41 -10.5h-59q-36 0 -49 15q-11 11 -19 51q-90 421 -90 747z" />
<glyph unicode=")" horiz-adv-x="332" d="M33 -85q47 341 47 749q0 407 -47 749q-6 43 2 54t41 11h59q36 0 49 -16q10 -11 19 -50q90 -423 90 -748q0 -326 -90 -747q-9 -40 -19 -51q-13 -15 -49 -15h-59q-33 0 -41 10.5t-2 53.5z" />
<glyph unicode="*" horiz-adv-x="430" d="M6 1241l14 25q16 26 46 6l116 -80l-10 139q-3 39 29 39h26q31 0 29 -41l-8 -137l114 78q31 20 48 -6l14 -23q16 -26 -23 -45l-120 -59l122 -60q38 -18 21 -45l-14 -22q-14 -28 -50 -4l-112 73l8 -139q2 -35 -27 -35h-28q-32 0 -29 35l10 139l-116 -78q-29 -18 -43 7 l-15 24q-15 28 15 43l127 62l-127 63q-31 16 -17 41z" />
<glyph unicode="+" horiz-adv-x="881" d="M14 653v105q0 70 37 79q11 3 27 3h229v223q0 65 78 65h104q70 0 80 -36q2 -11 2 -27v-225h232q63 0 63 -82v-105q0 -78 -65 -78h-230v-235q0 -64 -82 -64h-104q-78 0 -78 66v233h-227q-66 0 -66 78z" />
<glyph unicode="," horiz-adv-x="287" d="M23 51v99q0 53 10 70q12 22 53 22h115q40 0 53 -22q10 -17 10 -70v-64q0 -38 -22 -97l-39 -105q-16 -41 -43 -41h-99q-35 0 -20 35l37 88q14 34 -10 34h-13q-32 0 -32 51z" />
<glyph unicode="-" horiz-adv-x="432" d="M20 672v102q0 49 12.5 66.5t53.5 17.5h260q42 0 54 -18t12 -66v-102q0 -49 -12.5 -66.5t-53.5 -17.5h-260q-41 0 -53.5 18t-12.5 66z" />
<glyph unicode="." horiz-adv-x="287" d="M23 92v58q0 53 10 70q12 22 53 22h115q40 0 53 -22q10 -17 10 -70v-58q0 -53 -10 -70q-13 -22 -53 -22h-115q-41 0 -53 22q-10 17 -10 70z" />
<glyph unicode="/" horiz-adv-x="393" d="M14 10l213 1350q7 43 39 43h92q29 0 21 -51l-213 -1350q-7 -42 -39 -42h-92q-29 0 -21 50z" />
<glyph unicode="0" horiz-adv-x="713" d="M35 682q0 438 55 564q59 134 266 134t266 -134q56 -126 56 -564t-56 -565q-59 -134 -266 -134q-206 0 -266 134q-55 127 -55 565zM274 682q0 -306 14 -375q12 -65 68 -65t69 65q13 69 13 375q0 308 -13 377q-13 65 -69 65t-68 -65q-14 -69 -14 -377z" />
<glyph unicode="1" horiz-adv-x="412" d="M23 1204v70q0 80 40 89q15 3 43 3h175q45 0 57 -22q10 -18 10 -68v-1188q0 -57 -14 -72.5t-58 -15.5h-102q-45 0 -57 21q-11 18 -11 67v993q0 27 -4.5 35t-19.5 8h-14q-34 0 -42 26q-3 10 -3 54z" />
<glyph unicode="2" horiz-adv-x="586" d="M8 88v121q0 113 37 186l211 418q53 106 53 195q0 116 -78 116h-116q-69 0 -76 41q-2 15 -2 43v74q0 60 22 74q14 10 47 10h242q122 0 164 -84q39 -78 39 -274q0 -133 -64 -260l-231 -465q-20 -41 14 -41h236q65 0 65 -78v-80q0 -69 -38 -80q-13 -4 -35 -4h-422 q-50 0 -61 30q-7 18 -7 58z" />
<glyph unicode="3" horiz-adv-x="578" d="M6 84v70q0 65 26 80q14 8 42 8h162q35 0 49 12q28 23 28 149q0 152 -65 152h-111q-33 0 -45 12q-16 15 -16 74v80q0 60 37 88l147 113q54 41 54 110q0 92 -66 92h-166q-45 0 -57 19q-11 16 -11 59v74q0 49 11 67q12 23 57 23h237q121 0 171 -66q57 -75 57 -270 q0 -219 -121 -276q57 -48 80 -82q51 -77 51 -279q0 -216 -57.5 -304.5t-198.5 -88.5h-227q-46 0 -58 19q-10 16 -10 65z" />
<glyph unicode="4" horiz-adv-x="723" d="M12 428v125q0 57 127 383q121 311 170 393q22 37 82 37h160q67 0 67 -88v-649q0 -41 29 -41h25q43 0 43 -74v-100q0 -66 -39 -66h-29q-31 0 -31 -49v-217q0 -62 -25 -75q-14 -7 -42 -7h-109q-41 0 -53 16.5t-12 65.5v221q0 28 -7.5 36.5t-37.5 8.5h-252q-66 0 -66 80z M256 637q-15 -49 12 -49h78q29 0 29 51v281q0 24 -13 24q-9 0 -14 -14z" />
<glyph unicode="5" horiz-adv-x="582" d="M14 88v70q0 69 30 79q13 5 40 5h160q75 0 75 186q0 188 -75 188h-140q-71 0 -71 62v594q0 94 67 94h383q68 0 68 -88v-70q0 -84 -64 -84h-182q-17 0 -23 -5q-8 -8 -8 -38v-186q0 -37 27 -37h41q107 0 158 -72q69 -97 69 -364q0 -224 -55.5 -323t-179.5 -99h-250 q-58 0 -66 36q-4 17 -4 52z" />
<glyph unicode="6" horiz-adv-x="672" d="M20 504q0 212 19 312q27 148 119 294l139 223q20 33 47 33h205q34 0 34 -29q0 -15 -14 -39l-235 -391q39 17 94 17q112 0 166 -66q57 -70 57 -379q0 -280 -47 -383q-49 -105 -256 -105q-135 0 -192 22q-52 20 -88 79q-48 76 -48 412zM264 336q0 -74 33 -88q15 -6 43 -6 q68 0 68 92v260q0 61 -27 72q-15 6 -47 6q-44 0 -58 -21q-12 -16 -12 -65v-250z" />
<glyph unicode="7" horiz-adv-x="590" d="M10 1210v72q0 61 21 75q14 9 49 9h434q66 0 66 -86v-158q0 -54 -15 -112l-231 -947q-16 -63 -66 -63h-137q-50 0 -49 49q1 22 8 49l240 936q12 48 12 68q0 22 -27 22h-231q-63 0 -71 39q-3 16 -3 47z" />
<glyph unicode="8" horiz-adv-x="694" d="M25 420q0 152 27 227t93 105q-106 34 -106 286q0 191 54 258q63 78 253 78q191 0 255 -78q54 -67 54 -258q0 -252 -106 -286q66 -30 93.5 -105t27.5 -227q0 -240 -56 -327q-67 -102 -268 -102q-200 0 -267 102q-54 86 -54 327zM268 938q0 -48 15 -65t61 -17q74 0 74 82 v102q0 48 -15.5 66t-58.5 18q-76 0 -76 -82v-104zM270 299q0 -57 76 -57q72 0 72 59v215q0 51 -16 64.5t-60 13.5q-45 0 -58.5 -17.5t-13.5 -62.5v-215z" />
<glyph unicode="9" horiz-adv-x="672" d="M20 885q0 280 48.5 384.5t255.5 104.5q127 0 187 -23q54 -21 93 -79q47 -69 47 -393q0 -194 -17 -303q-25 -164 -99 -285l-158 -258q-20 -33 -47 -33h-205q-33 0 -33 29q0 18 12 39l238 393q-36 -21 -98 -21q-111 0 -166 66q-58 68 -58 379zM262 770q0 -61 27 -72 q15 -6 47 -6q44 0 59 20q13 17 13 66v250q0 52 -13 71q-17 23 -65 23q-68 0 -68 -92v-260z" />
<glyph unicode=":" horiz-adv-x="287" d="M23 92v58q0 53 10 70q12 22 53 22h115q40 0 53 -22q10 -17 10 -70v-58q0 -53 -10 -70q-13 -22 -53 -22h-115q-41 0 -53 22q-10 17 -10 70zM23 631v57q0 53 11 72.5t52 19.5h115q40 0 53 -21q10 -18 10 -71v-57q0 -53 -10 -71q-13 -21 -53 -21h-115q-41 0 -53 21 q-10 18 -10 71z" />
<glyph unicode=";" horiz-adv-x="287" d="M23 51v99q0 53 10 70q12 22 53 22h115q40 0 53 -22q10 -17 10 -70v-64q0 -38 -22 -97l-39 -105q-16 -41 -43 -41h-99q-35 0 -20 35l37 88q14 34 -10 34h-13q-32 0 -32 51zM23 631v57q0 53 11 72.5t52 19.5h115q40 0 53 -21q10 -18 10 -71v-57q0 -53 -10 -71 q-13 -21 -53 -21h-115q-41 0 -53 21q-10 18 -10 71z" />
<glyph unicode="=" horiz-adv-x="770" d="M20 258v57q0 54 11 71q12 22 53 22h602q41 0 53 -22q11 -17 11 -71v-57q0 -53 -11 -71q-12 -21 -53 -21h-602q-41 0 -53 21q-11 18 -11 71zM20 625v57q0 53 11.5 72.5t52.5 19.5h602q41 0 52.5 -19.5t11.5 -72.5v-57q0 -54 -11 -71q-12 -22 -53 -22h-602q-41 0 -53 22 q-11 17 -11 71z" />
<glyph unicode="?" horiz-adv-x="549" d="M14 1210v70q0 86 68 86h246q110 0 150 -50q48 -59 48 -233q0 -152 -53 -264l-80 -168q-20 -43 -20 -106v-133q0 -60 -64 -60h-102q-53 0 -63 33q-5 15 -5 43v186q0 64 21 107l80 168q45 95 45 158q0 77 -68 77h-135q-68 0 -68 86zM139 92v58q0 53 11 70q12 22 53 22h106 q41 0 53 -22q11 -17 11 -70v-58q0 -53 -11 -70q-12 -22 -53 -22h-106q-41 0 -53 22q-11 17 -11 70z" />
<glyph unicode="@" horiz-adv-x="991" d="M33 616q0 330 128 519q134 198 381 198q206 0 317 -152q104 -144 104 -393q0 -218 -88 -360t-218 -142q-69 0 -96 79q-55 -77 -129 -77q-75 0 -122 81t-47 196q0 177 64 301q68 134 178 134q54 0 85 -58q16 36 43 36h59q39 0 39 -54q0 -13 -6 -59l-47 -351q-2 -15 -2 -39 q0 -37 24 -37q37 0 68 87q36 102 36 267q0 176 -68 277q-69 105 -197 105q-167 0 -258 -163q-84 -150 -84 -395q0 -464 309 -464q143 0 280 49q11 4 19 4q19 0 28 -29l23 -78q3 -10 6 -22q0 -27 -87 -49q-140 -34 -279 -34q-463 0 -463 623zM420 565q0 -127 49 -127 q41 0 69 72q31 82 31 225q0 119 -53 119q-35 0 -63 -73q-33 -83 -33 -216z" />
<glyph unicode="A" horiz-adv-x="760" d="M6 31l166 1257q10 78 86 78h238q68 0 79 -80l179 -1255q4 -31 -31 -31h-195q-29 0 -34 37l-39 289q-5 32 -35 32h-86q-31 0 -35 -32l-33 -293q-3 -33 -37 -33h-188q-39 0 -35 31zM324 623q-4 -23 26 -23h51q31 0 29 23l-39 471q-2 30 -16 30t-17 -32z" />
<glyph unicode="B" horiz-adv-x="739" d="M53 90v1188q0 88 66 88h370q121 0 167 -100q36 -77 36 -244q0 -242 -110 -309q129 -51 129 -344q0 -369 -222 -369h-370q-45 0 -57 27q-9 19 -9 63zM293 283q0 -41 35 -41h39q70 0 89 54q11 28 11 116q0 105 -25 142q-21 32 -75 32h-39q-24 0 -31 -12q-4 -8 -4 -29v-262z M293 868q0 -41 35 -41h39q60 0 77 49q9 24 9 99q0 71 -11 100q-19 49 -75 49h-39q-24 0 -29.5 -9.5t-5.5 -31.5v-215z" />
<glyph unicode="C" horiz-adv-x="594" d="M29 940q3 190 47 292q59 134 194 134h254q64 0 64 -72v-92q0 -50 -14.5 -64t-53.5 -14h-155q-60 0 -72 -60q-12 -65 -12 -384q0 -258 -2 -258l-1 4q12 -184 82 -184h160q66 0 66 -70v-98q0 -74 -62 -74h-243q-155 0 -200.5 125t-45.5 532q0 411 -2 411t-4 -128z" />
<glyph unicode="D" horiz-adv-x="750" d="M53 88v1186q0 92 66 92h350q161 0 208 -154q38 -123 38 -528q0 -306 -19 -441q-21 -146 -77 -198q-49 -45 -162 -45h-332q-52 0 -64 26q-8 17 -8 62zM287 297q0 -38 11.5 -46.5t63.5 -8.5q56 0 73 18q23 24 30 111q6 74 6 293q0 249 -5 321q-6 96 -30 121q-17 18 -80 18 q-43 0 -56 -10t-13 -51v-766z" />
<glyph unicode="E" horiz-adv-x="616" d="M53 90v1186q0 90 70 90h405q35 0 48 -11q18 -15 18 -69v-76q0 -68 -30 -80q-13 -6 -36 -6h-200q-28 0 -34 -14q-3 -9 -3 -31v-190q0 -30 5.5 -36.5t31.5 -6.5h102q59 0 59 -70v-104q0 -68 -59 -68h-102q-24 0 -30.5 -7t-6.5 -24v-286q0 -45 43 -45h203q73 0 73 -88v-66 q0 -88 -69 -88h-418q-48 0 -61 27q-9 19 -9 63z" />
<glyph unicode="F" horiz-adv-x="588" d="M53 86v1186q0 71 26 86q14 8 42 8h389q72 0 72 -88v-72q0 -82 -64 -82h-188q-27 0 -33 -14q-4 -8 -4 -41v-186q0 -37 26 -37h115q41 0 53 -22q9 -17 9 -60v-72q0 -88 -64 -88h-102q-27 0 -33 -13q-4 -8 -4 -40v-465q0 -86 -60 -86h-114q-50 0 -60 35q-6 17 -6 51z" />
<glyph unicode="G" d="M35 678q2 398 31 513q44 175 203 175h278q44 0 57 -18.5t13 -67.5v-66q0 -90 -64 -90h-147q-68 0 -88 -17q-26 -25 -34 -119q-5 -73 -5 -316v-299q0 -131 108 -131q99 0 99 108v201q0 53 -25 53h-59q-37 0 -37 64v94q0 47 12 63q15 21 64 21h194q64 0 64 -90v-355 q0 -216 -53 -299q-67 -105 -263 -105q-241 0 -306 166q-42 109 -42 481v34z" />
<glyph unicode="H" horiz-adv-x="774" d="M53 90v1188q0 88 68 88h110q62 0 62 -86v-395q0 -39 31 -39h127q30 0 30 39v395q0 86 62 86h110q68 0 68 -88v-1188q0 -90 -68 -90h-108q-64 0 -64 88v473q0 43 -32 43h-123q-33 0 -33 -43v-473q0 -88 -64 -88h-108q-68 0 -68 90z" />
<glyph unicode="I" horiz-adv-x="348" d="M53 90v1184q0 92 68 92h110q64 0 64 -92v-1188q0 -49 -11 -66q-13 -20 -57 -20h-102q-39 0 -54 14q-18 16 -18 76z" />
<glyph unicode="J" horiz-adv-x="471" d="M6 84v76q0 48 11 63q13 19 55 19h53q65 0 65 90v948q0 52 13.5 69t56.5 17h102q49 0 61 -23q9 -17 9 -61v-932q0 -151 -47 -237q-61 -113 -207 -113h-100q-52 0 -64 25q-8 16 -8 59z" />
<glyph unicode="K" horiz-adv-x="768" d="M53 90v1184q0 92 68 92h110q64 0 64 -92v-305q0 -21 8 -23q11 -2 23 23l151 319q24 50 33 61q15 17 45 17h182q25 0 25 -25q0 -12 -6 -24l-203 -393q-10 -19 -12 -39q-2 -13 6 -43l207 -781q5 -21 5 -34q0 -27 -38 -27h-168q-45 0 -57 59l-97 455q-13 64 -24 64 q-17 0 -62 -84q-18 -35 -18 -115v-293q0 -49 -11 -66q-13 -20 -57 -20h-102q-39 0 -54 14q-18 16 -18 76z" />
<glyph unicode="L" horiz-adv-x="569" d="M53 90v1188q0 88 68 88h108q43 0 56 -24q10 -18 10 -64v-993q0 -43 33 -43h166q69 0 69 -86v-68q0 -88 -76 -88h-366q-45 0 -57 22q-11 18 -11 68z" />
<glyph unicode="M" horiz-adv-x="954" d="M53 88v1194q0 49 12.5 66.5t53.5 17.5h112q50 0 65.5 -10.5t27.5 -52.5l137 -492q5 -18 16 -18t17 18l137 492q12 42 27 52.5t65 10.5h113q41 0 53 -18t12 -66v-1194q0 -68 -22 -80q-14 -8 -45 -8h-109q-42 0 -56 23q-10 17 -10 63v555q0 49 -8 49q-9 0 -18 -45l-82 -405 q-12 -62 -74 -62q-61 0 -74 62l-81 405q-10 45 -19 45q-8 0 -8 -49v-555q0 -46 -10 -63q-13 -23 -56 -23h-108q-55 0 -64 35q-4 17 -4 53z" />
<glyph unicode="N" horiz-adv-x="801" d="M53 92v1184q0 60 19 77q15 13 53 13h94q38 0 52 -10.5t28 -52.5l172 -508q10 -29 23 -29q10 0 10 39v471q0 90 63 90h107q74 0 74 -92v-1182q0 -60 -19 -78q-15 -14 -53 -14h-94q-38 0 -52 10.5t-28 52.5l-172 510q-10 29 -23 29q-10 0 -10 -39v-473q0 -90 -64 -90h-106 q-74 0 -74 92z" />
<glyph unicode="O" d="M35 686q0 379 40 500q65 194 290 194q223 0 288 -194q41 -123 41 -500q0 -380 -41 -505q-66 -198 -288 -198q-224 0 -290 198q-40 124 -40 505zM274 686q0 -285 13 -357q15 -87 78 -87t78 87q12 66 12 357q0 284 -13 353q-15 83 -77 83q-64 0 -79 -83q-12 -64 -12 -353z " />
<glyph unicode="P" horiz-adv-x="702" d="M53 88v1184q0 94 66 94h315q262 0 262 -436q0 -422 -229 -422h-172v-420q0 -56 -14 -72t-52 -16h-110q-52 0 -61 33q-5 17 -5 55zM295 784q0 -34 31 -34h67q47 0 59 74q3 21 3 108q0 118 -16 158q-14 34 -52 34h-59q-33 0 -33 -37v-303z" />
<glyph unicode="Q" d="M35 686q0 379 40 500q65 194 287 194q225 0 290 -194q40 -121 40 -500q0 -253 -11 -356q-18 -166 -79 -246l115 -122q19 -20 19 -35q0 -18 -29 -30l-136 -60q-11 -5 -20 -5q-22 0 -53 40l-88 113q-7 0 -23 -1t-25 -1q-222 0 -287 198q-40 124 -40 505zM272 686 q0 -288 12 -357q16 -87 78 -87q79 0 93 184q0 -5 0 260q0 281 -14 353q-15 83 -79 83q-63 0 -78 -83q-12 -66 -12 -353z" />
<glyph unicode="R" horiz-adv-x="719" d="M53 88v1186q0 92 70 92h293q280 0 280 -422q0 -213 -110 -307l119 -582q4 -20 4 -26q0 -29 -37 -29h-160q-45 0 -55 59l-84 492q-3 18 -25 18h-29q-22 0 -22 -18v-465q0 -86 -68 -86h-110q-48 0 -59 30q-7 19 -7 58zM297 848q0 -37 20 -37h68q74 0 74 164q0 149 -70 149 h-65q-27 0 -27 -28v-248z" />
<glyph unicode="S" horiz-adv-x="618" d="M10 1118q0 136 63 194q59 54 191 54h234q57 0 57 -74v-90q0 -78 -63 -78h-183q-63 0 -63 -58q0 -30 18 -62l219 -404q125 -230 125 -381q0 -219 -219 -219h-305q-42 0 -55 18t-13 66v72q0 64 22 77q13 9 44 9h211q55 0 55 54q0 23 -12 46l-232 436q-94 178 -94 340z" />
<glyph unicode="T" horiz-adv-x="645" d="M6 1206v70q0 68 26 82q14 8 42 8h499q66 0 66 -82v-76q0 -71 -37 -81q-10 -3 -27 -3h-106q-27 0 -27 -41v-993q0 -52 -12 -71t-53 -19h-107q-56 0 -65 40q-4 16 -4 44v999q0 41 -27 41h-106q-33 0 -46 12q-16 15 -16 70z" />
<glyph unicode="U" horiz-adv-x="741" d="M41 379v897q0 48 12 67q16 23 60 23h108q41 0 53 -24q9 -16 9 -60v-934q0 -106 90 -106q86 0 86 108v932q0 49 12 66.5t53 17.5h113q49 0 58 -30q5 -17 5 -54v-893q0 -196 -57 -287q-77 -119 -276 -119q-193 0 -265 103q-61 87 -61 293z" />
<glyph unicode="V" horiz-adv-x="745" d="M6 1311q-1 8 -1 15q0 40 38 40h158q47 0 55 -66l98 -778q4 -30 19 -30q14 0 18 30l98 778q9 66 56 66h157q38 0 38 -38q0 -8 -1 -17l-202 -1256q-9 -55 -56 -55h-217q-46 0 -55 55z" />
<glyph unicode="W" horiz-adv-x="1132" d="M6 1319q0 47 54 47h139q41 0 49 -59l97 -666q3 -27 18 -27q10 0 16 27l92 393l-28 258q-1 9 -1 17q0 57 52 57h143q44 0 52 -59l79 -664q4 -29 17 -29t16 29l82 670q7 53 47 53h150q46 0 46 -42q0 -13 -3 -32l-213 -1233q-10 -59 -58 -59h-159q-33 0 -44 14q-9 11 -14 47 l-57 457q-3 25 -10 25q-9 0 -15 -23l-112 -479q-10 -41 -56 -41h-133q-43 0 -51 51l-192 1239q-3 16 -3 29z" />
<glyph unicode="X" horiz-adv-x="701" d="M6 1324q0 42 45 42h156q43 0 53 -55l74 -385q5 -27 16 -27q12 0 17 27l74 385q10 55 53 55h155q46 0 46 -42q0 -13 -5 -32l-137 -583l137 -633q4 -20 4 -34q0 -42 -36 -42h-160q-47 0 -55 51l-74 424q-4 25 -19 25q-14 0 -18 -25l-74 -424q-9 -51 -55 -51h-160 q-37 0 -37 44q0 14 4 32l136 633l-136 583q-4 19 -4 32z" />
<glyph unicode="Y" horiz-adv-x="705" d="M6 1294q-5 19 -5 33q0 39 42 39h137q42 0 53 -49l105 -445q7 -22 14 -22t15 22l104 445q12 49 53 49h138q42 0 42 -38q0 -15 -6 -34l-225 -772v-434q0 -56 -14 -72t-53 -16h-107q-45 0 -57 21q-11 18 -11 67v434z" />
<glyph unicode="Z" horiz-adv-x="637" d="M16 82v154q0 69 33 141l326 710q17 37 -17 37h-256q-47 0 -60 21q-7 13 -7 63v72q0 53 12 69.5t53 16.5h457q61 0 61 -80v-172q0 -41 -28 -104l-326 -719q-8 -17 -8 -28q0 -21 27 -21h272q37 0 51.5 -16.5t14.5 -71.5v-70q0 -69 -38 -80q-14 -4 -36 -4h-465q-43 0 -56 21 q-10 17 -10 61z" />
<glyph unicode="\" horiz-adv-x="385" d="M10 1352q-8 51 21 51h92q32 0 39 -43l213 -1350q8 -50 -21 -50h-92q-32 0 -39 42z" />
<glyph unicode="`" horiz-adv-x="322" d="M-21 1589q0 27 27 27h180q20 0 45 -33l93 -121q10 -14 10 -27q0 -18 -23 -18h-127q-23 0 -45 19l-140 120q-20 18 -20 33z" />
<glyph unicode="a" horiz-adv-x="760" d="M6 31l166 1257q10 78 86 78h238q68 0 79 -80l179 -1255q4 -31 -31 -31h-195q-29 0 -34 37l-39 289q-5 32 -35 32h-86q-31 0 -35 -32l-33 -293q-3 -33 -37 -33h-188q-39 0 -35 31zM324 623q-4 -23 26 -23h51q31 0 29 23l-39 471q-2 30 -16 30t-17 -32z" />
<glyph unicode="b" horiz-adv-x="739" d="M53 90v1188q0 88 66 88h370q121 0 167 -100q36 -77 36 -244q0 -242 -110 -309q129 -51 129 -344q0 -369 -222 -369h-370q-45 0 -57 27q-9 19 -9 63zM293 283q0 -41 35 -41h39q70 0 89 54q11 28 11 116q0 105 -25 142q-21 32 -75 32h-39q-24 0 -31 -12q-4 -8 -4 -29v-262z M293 868q0 -41 35 -41h39q60 0 77 49q9 24 9 99q0 71 -11 100q-19 49 -75 49h-39q-24 0 -29.5 -9.5t-5.5 -31.5v-215z" />
<glyph unicode="c" horiz-adv-x="594" d="M29 940q3 190 47 292q59 134 194 134h254q64 0 64 -72v-92q0 -50 -14.5 -64t-53.5 -14h-155q-60 0 -72 -60q-12 -65 -12 -384q0 -258 -2 -258l-1 4q12 -184 82 -184h160q66 0 66 -70v-98q0 -74 -62 -74h-243q-154 0 -200 125t-46 532q0 411 -2 411t-4 -128z" />
<glyph unicode="d" horiz-adv-x="750" d="M53 88v1186q0 92 66 92h350q161 0 208 -154q38 -123 38 -528q0 -306 -19 -441q-21 -146 -77 -198q-49 -45 -162 -45h-332q-52 0 -64 26q-8 17 -8 62zM287 297q0 -38 11.5 -46.5t63.5 -8.5q56 0 73 18q23 24 30 111q6 74 6 293q0 249 -5 321q-6 96 -30 121q-17 18 -80 18 q-43 0 -56 -10t-13 -51v-766z" />
<glyph unicode="e" horiz-adv-x="616" d="M53 90v1186q0 90 70 90h405q35 0 48 -11q18 -15 18 -69v-76q0 -68 -30 -80q-13 -6 -36 -6h-200q-28 0 -34 -14q-3 -9 -3 -31v-190q0 -30 5.5 -36.5t31.5 -6.5h102q59 0 59 -70v-104q0 -68 -59 -68h-102q-24 0 -30.5 -7t-6.5 -24v-286q0 -45 43 -45h203q73 0 73 -88v-66 q0 -88 -69 -88h-418q-48 0 -61 27q-9 19 -9 63z" />
<glyph unicode="f" horiz-adv-x="588" d="M53 86v1186q0 71 26 86q14 8 42 8h389q72 0 72 -88v-72q0 -82 -64 -82h-188q-27 0 -33 -14q-4 -8 -4 -41v-186q0 -37 26 -37h115q41 0 53 -22q9 -17 9 -60v-72q0 -88 -64 -88h-102q-27 0 -33 -13q-4 -8 -4 -40v-465q0 -86 -60 -86h-114q-50 0 -60 35q-6 17 -6 51z" />
<glyph unicode="g" d="M35 678q2 398 31 513q44 175 203 175h278q44 0 57 -18.5t13 -67.5v-66q0 -90 -64 -90h-147q-68 0 -88 -17q-26 -25 -34 -119q-5 -73 -5 -316v-299q0 -131 108 -131q99 0 99 108v201q0 53 -25 53h-59q-37 0 -37 64v94q0 47 12 63q15 21 64 21h194q64 0 64 -90v-355 q0 -216 -53 -299q-67 -105 -263 -105q-241 0 -306 166q-42 109 -42 481v34z" />
<glyph unicode="h" horiz-adv-x="774" d="M53 90v1188q0 88 68 88h110q62 0 62 -86v-395q0 -39 31 -39h127q30 0 30 39v395q0 86 62 86h110q68 0 68 -88v-1188q0 -90 -68 -90h-108q-64 0 -64 88v473q0 43 -32 43h-123q-33 0 -33 -43v-473q0 -88 -64 -88h-108q-68 0 -68 90z" />
<glyph unicode="i" horiz-adv-x="348" d="M53 90v1184q0 92 68 92h110q64 0 64 -92v-1188q0 -49 -11 -66q-13 -20 -57 -20h-102q-39 0 -54 14q-18 16 -18 76z" />
<glyph unicode="j" horiz-adv-x="471" d="M6 84v76q0 48 11 63q13 19 55 19h53q65 0 65 90v948q0 52 13.5 69t56.5 17h102q49 0 61 -23q9 -17 9 -61v-932q0 -151 -47 -237q-61 -113 -207 -113h-100q-52 0 -64 25q-8 16 -8 59z" />
<glyph unicode="k" horiz-adv-x="768" d="M53 90v1184q0 92 68 92h110q64 0 64 -92v-305q0 -21 8 -23q11 -2 23 23l151 319q24 50 33 61q15 17 45 17h182q25 0 25 -25q0 -12 -6 -24l-203 -393q-10 -19 -12 -39q-2 -13 6 -43l207 -781q5 -21 5 -34q0 -27 -38 -27h-168q-45 0 -57 59l-97 455q-13 64 -24 64 q-17 0 -62 -84q-18 -35 -18 -115v-293q0 -49 -11 -66q-13 -20 -57 -20h-102q-39 0 -54 14q-18 16 -18 76z" />
<glyph unicode="l" horiz-adv-x="569" d="M53 90v1188q0 88 68 88h108q43 0 56 -24q10 -18 10 -64v-993q0 -43 33 -43h166q69 0 69 -86v-68q0 -88 -76 -88h-366q-45 0 -57 22q-11 18 -11 68z" />
<glyph unicode="m" horiz-adv-x="954" d="M53 88v1194q0 49 12.5 66.5t53.5 17.5h112q50 0 65.5 -10.5t27.5 -52.5l137 -492q5 -18 16 -18t17 18l137 492q12 42 27 52.5t65 10.5h113q41 0 53 -18t12 -66v-1194q0 -68 -22 -80q-14 -8 -45 -8h-109q-42 0 -56 23q-10 17 -10 63v555q0 49 -8 49q-9 0 -18 -45l-82 -405 q-12 -62 -74 -62q-61 0 -74 62l-81 405q-10 45 -19 45q-8 0 -8 -49v-555q0 -46 -10 -63q-13 -23 -56 -23h-108q-55 0 -64 35q-4 17 -4 53z" />
<glyph unicode="n" horiz-adv-x="801" d="M53 92v1184q0 60 19 77q15 13 53 13h94q38 0 52 -10.5t28 -52.5l172 -508q10 -29 23 -29q10 0 10 39v471q0 90 63 90h107q74 0 74 -92v-1182q0 -60 -19 -78q-15 -14 -53 -14h-94q-38 0 -52 10.5t-28 52.5l-172 510q-10 29 -23 29q-10 0 -10 -39v-473q0 -90 -64 -90h-106 q-74 0 -74 92z" />
<glyph unicode="o" d="M35 686q0 379 40 500q65 194 290 194q223 0 288 -194q41 -123 41 -500q0 -380 -41 -505q-66 -198 -288 -198q-224 0 -290 198q-40 124 -40 505zM274 686q0 -285 13 -357q15 -87 78 -87t78 87q12 66 12 357q0 284 -13 353q-15 83 -77 83q-64 0 -79 -83q-12 -64 -12 -353z " />
<glyph unicode="p" horiz-adv-x="702" d="M53 88v1184q0 94 66 94h315q262 0 262 -436q0 -422 -229 -422h-172v-420q0 -56 -14 -72t-52 -16h-110q-52 0 -61 33q-5 17 -5 55zM295 784q0 -34 31 -34h67q47 0 59 74q3 21 3 108q0 118 -16 158q-14 34 -52 34h-59q-33 0 -33 -37v-303z" />
<glyph unicode="q" d="M35 686q0 379 40 500q65 194 287 194q225 0 290 -194q40 -121 40 -500q0 -253 -11 -356q-18 -166 -79 -246l115 -122q19 -20 19 -35q0 -18 -29 -30l-136 -60q-11 -5 -20 -5q-22 0 -53 40l-88 113q-7 0 -23 -1t-25 -1q-222 0 -287 198q-40 124 -40 505zM272 686 q0 -288 12 -357q16 -87 78 -87q79 0 93 184q0 -5 0 260q0 281 -14 353q-15 83 -79 83q-63 0 -78 -83q-12 -66 -12 -353z" />
<glyph unicode="r" horiz-adv-x="719" d="M53 88v1186q0 92 70 92h293q280 0 280 -422q0 -213 -110 -307l119 -582q4 -20 4 -26q0 -29 -37 -29h-160q-45 0 -55 59l-84 492q-3 18 -25 18h-29q-22 0 -22 -18v-465q0 -86 -68 -86h-110q-48 0 -59 30q-7 19 -7 58zM297 848q0 -37 20 -37h68q74 0 74 164q0 149 -70 149 h-65q-27 0 -27 -28v-248z" />
<glyph unicode="s" horiz-adv-x="618" d="M10 1118q0 136 63 194q59 54 191 54h234q57 0 57 -74v-90q0 -78 -63 -78h-183q-63 0 -63 -58q0 -30 18 -62l219 -404q125 -230 125 -381q0 -219 -219 -219h-305q-42 0 -55 18t-13 66v72q0 64 22 77q13 9 44 9h211q55 0 55 54q0 23 -12 46l-232 436q-94 178 -94 340z" />
<glyph unicode="t" horiz-adv-x="645" d="M6 1206v70q0 68 26 82q14 8 42 8h499q66 0 66 -82v-76q0 -71 -37 -81q-10 -3 -27 -3h-106q-27 0 -27 -41v-993q0 -52 -12 -71t-53 -19h-107q-56 0 -65 40q-4 16 -4 44v999q0 41 -27 41h-106q-33 0 -46 12q-16 15 -16 70z" />
<glyph unicode="u" horiz-adv-x="741" d="M41 379v897q0 48 12 67q16 23 60 23h108q41 0 53 -24q9 -16 9 -60v-934q0 -106 90 -106q86 0 86 108v932q0 49 12 66.5t53 17.5h113q49 0 58 -30q5 -17 5 -54v-893q0 -196 -57 -287q-77 -119 -276 -119q-193 0 -265 103q-61 87 -61 293z" />
<glyph unicode="v" horiz-adv-x="745" d="M6 1311q-1 8 -1 15q0 40 38 40h158q47 0 55 -66l98 -778q4 -30 19 -30q14 0 18 30l98 778q9 66 56 66h157q38 0 38 -38q0 -8 -1 -17l-202 -1256q-9 -55 -56 -55h-217q-46 0 -55 55z" />
<glyph unicode="w" horiz-adv-x="1132" d="M6 1319q0 47 54 47h139q41 0 49 -59l97 -666q3 -27 18 -27q10 0 16 27l92 393l-28 258q-1 9 -1 17q0 57 52 57h143q44 0 52 -59l79 -664q4 -29 17 -29t16 29l82 670q7 53 47 53h150q46 0 46 -42q0 -13 -3 -32l-213 -1233q-10 -59 -58 -59h-159q-33 0 -44 14q-9 11 -14 47 l-57 457q-3 25 -10 25q-9 0 -15 -23l-112 -479q-10 -41 -56 -41h-133q-43 0 -51 51l-192 1239q-3 16 -3 29z" />
<glyph unicode="x" horiz-adv-x="701" d="M6 1324q0 42 45 42h156q43 0 53 -55l74 -385q5 -27 16 -27q12 0 17 27l74 385q10 55 53 55h155q46 0 46 -42q0 -13 -5 -32l-137 -583l137 -633q4 -20 4 -34q0 -42 -36 -42h-160q-47 0 -55 51l-74 424q-4 25 -19 25q-14 0 -18 -25l-74 -424q-9 -51 -55 -51h-160 q-37 0 -37 44q0 14 4 32l136 633l-136 583q-4 19 -4 32z" />
<glyph unicode="y" horiz-adv-x="705" d="M6 1294q-5 19 -5 33q0 39 42 39h137q42 0 53 -49l105 -445q7 -22 14 -22t15 22l104 445q12 49 53 49h138q42 0 42 -38q0 -15 -6 -34l-225 -772v-434q0 -56 -14 -72t-53 -16h-107q-45 0 -57 21q-11 18 -11 67v434z" />
<glyph unicode="z" horiz-adv-x="637" d="M16 82v154q0 69 33 141l326 710q17 37 -17 37h-256q-47 0 -60 21q-7 13 -7 63v72q0 53 12 69.5t53 16.5h457q61 0 61 -80v-172q0 -41 -28 -104l-326 -719q-8 -17 -8 -28q0 -21 27 -21h272q37 0 51.5 -16.5t14.5 -71.5v-70q0 -69 -38 -80q-14 -4 -36 -4h-465q-43 0 -56 21 q-10 17 -10 61z" />
<glyph unicode="~" horiz-adv-x="1335" d="M0 655v84q0 41 9.5 56t47.5 36q149 82 310 82q118 0 275.5 -60t291.5 -60q173 0 344 73q14 6 26 6q31 0 31 -41v-90q0 -44 -9.5 -61t-47.5 -33q-156 -65 -356 -65q-131 0 -290 61.5t-278 61.5q-116 0 -297 -87q-13 -6 -24 -6q-33 0 -33 43z" />
<glyph unicode="&#xa1;" horiz-adv-x="352" d="M57 88l9 840q0 84 61 84h86q41 0 56 -22q11 -17 12 -62l14 -842q1 -86 -64 -86h-108q-67 0 -66 88zM57 1217v57q0 53 11.5 72.5t52.5 19.5h106q41 0 54 -21q10 -18 10 -71v-57q0 -54 -10 -71q-13 -22 -54 -22h-106q-41 0 -53 22q-11 17 -11 71z" />
<glyph unicode="&#xa2;" horiz-adv-x="403" d="M33 930q0 181 6 228q21 155 104 169v74q0 29 25 29h70q26 0 26 -31v-68h70q37 0 37 -41v-102q0 -32 -14 -39q-8 -4 -25 -4h-72q-34 0 -41.5 -30.5t-7.5 -172.5q0 -122 -1 -116q7 -83 46 -83h76q37 0 37 -38v-107q0 -41 -35 -41h-64v-61q0 -39 -30 -39h-62q-33 0 -33 32 v70q-64 12 -88 90t-24 281z" />
<glyph unicode="&#xa3;" horiz-adv-x="725" d="M16 717v92q0 72 45 72h80q13 0 19 22l30 236q30 227 181 227h235q64 0 64 -82v-78q0 -82 -52 -82h-153q-35 0 -43 -55l-23 -151q-5 -37 17 -37h176q45 0 45 -74v-86q0 -80 -59 -80h-181q-23 0 -28 -47l-37 -315q-5 -37 28 -37h267q65 0 65 -90v-66q0 -86 -67 -86h-435 q-115 0 -110 141q1 46 8 127q11 83 47 336q6 37 -12 37h-70q-37 0 -37 76z" />
<glyph unicode="&#xa4;" horiz-adv-x="854" d="M18 782l25 95q7 28 33 28h57q40 253 177 374q112 99 274 99q106 0 204 -35q41 -14 41 -32q0 -20 -14 -64l-29 -88q-14 -45 -34 -45q-11 0 -60 15.5t-94 15.5q-183 0 -219 -240h274q50 0 43 -26l-24 -99q-7 -26 -39 -26h-262q-2 -23 -2 -74q0 -57 2 -84h202q50 0 43 -27 l-24 -98q-7 -27 -39 -27h-168q19 -233 172 -233q63 0 123 13.5t76 13.5q41 0 41 -52v-90q0 -69 -31 -82q-79 -31 -227 -31q-354 0 -406 461h-74q-46 0 -39 29l25 94q8 29 33 29h43q-2 18 -2 70q0 59 2 88h-64q-46 0 -39 28z" />
<glyph unicode="&#x20ac;" horiz-adv-x="854" d="M18 782l25 95q7 28 33 28h57q40 253 177 374q112 99 274 99q106 0 204 -35q41 -14 41 -32q0 -20 -14 -64l-29 -88q-14 -45 -34 -45q-11 0 -60 15.5t-94 15.5q-183 0 -219 -240h274q50 0 43 -26l-24 -99q-7 -26 -39 -26h-262q-2 -23 -2 -74q0 -57 2 -84h202q50 0 43 -27 l-24 -98q-7 -27 -39 -27h-168q19 -233 172 -233q63 0 123 13.5t76 13.5q41 0 41 -52v-90q0 -69 -31 -82q-79 -31 -227 -31q-354 0 -406 461h-74q-46 0 -39 29l25 94q8 29 33 29h43q-2 18 -2 70q0 59 2 88h-64q-46 0 -39 28z" />
<glyph unicode="&#xa5;" horiz-adv-x="944" d="M20 502v39q0 61 43 61h254l-41 148h-213q-43 0 -43 61v39q0 63 43 63h164l-110 381q-21 72 37 72h137q42 0 53 -49l105 -445q7 -22 14 -22t14 22l105 445q11 49 53 49h137q58 0 37 -72l-113 -381h172q43 0 43 -63v-39q0 -61 -43 -61h-219l-43 -148h262q43 0 43 -61v-39 q0 -64 -43 -64h-284v-350q0 -56 -14 -72t-54 -16h-106q-45 0 -58 21q-10 18 -10 67v350h-279q-43 0 -43 64z" />
<glyph unicode="&#xa7;" horiz-adv-x="770" d="M10 735q0 260 146 307v2q0 175 59 250q56 72 184 72h260q61 0 69 -30q3 -12 3 -38v-55q0 -56 -37 -61q-12 -2 -35 -2h-217q-52 0 -66 -40q-7 -21 -7 -89q0 -42 101 -104q149 -91 188 -125q102 -89 102 -197q0 -259 -146 -303v-9q0 -172 -57.5 -243t-185.5 -71h-260 q-61 0 -69 29q-3 12 -3 38v55q0 56 37 61q12 2 35 2h211q43 0 58 20.5t15 102.5q0 51 -100 113q-160 101 -185 123q-100 86 -100 192zM221 741q0 -43 106 -107q151 -92 193 -130q29 17 29 114q0 51 -105 115q-163 100 -192 125q-31 -17 -31 -117z" />
<glyph unicode="&#xa8;" horiz-adv-x="475" d="M20 1480v79q0 63 64 63h59q64 0 64 -63v-79q0 -63 -64 -63h-59q-64 0 -64 63zM268 1480v79q0 63 64 63h59q64 0 64 -63v-79q0 -63 -64 -63h-59q-64 0 -64 63z" />
<glyph unicode="&#xa9;" horiz-adv-x="733" d="M20 1151q0 144 101.5 245t245.5 101q143 0 244.5 -101t101.5 -245q0 -143 -102 -244.5t-244 -101.5q-143 0 -245 101.5t-102 244.5zM84 1151q0 -117 83 -200t200 -83q116 0 199 83t83 200t-83 200t-199 83q-117 0 -200 -83t-83 -200zM225 1147q0 229 146 229 q70 0 103 -60q24 -43 22 -93h-68q-5 88 -57 88q-74 0 -74 -162q0 -160 74 -160q58 0 63 115h68q0 -182 -133 -182q-144 0 -144 225z" />
<glyph unicode="&#xab;" horiz-adv-x="431" d="M10 524v264q0 59 27 78l125 93q12 9 19 9q13 0 13 -28v-137q0 -37 -14 -57l-65 -95l59 -84q20 -29 20 -53v-145q0 -34 -26 -21l-125 90q-33 24 -33 86zM237 524v264q0 59 26 78l126 93q11 9 19 9q13 0 13 -28v-137q0 -37 -14 -57l-66 -95l59 -84q21 -29 21 -53v-145 q0 -34 -26 -21l-126 90q-32 24 -32 86z" />
<glyph unicode="&#xad;" horiz-adv-x="432" d="M20 672v102q0 49 12.5 66.5t53.5 17.5h260q42 0 54 -18t12 -66v-102q0 -49 -12.5 -66.5t-53.5 -17.5h-260q-41 0 -53.5 18t-12.5 66z" />
<glyph unicode="&#xae;" horiz-adv-x="733" d="M20 1151q0 144 101.5 245t245.5 101q143 0 244.5 -101t101.5 -245q0 -143 -102 -244.5t-244 -101.5q-143 0 -245 101.5t-102 244.5zM84 1151q0 -117 83 -200t200 -83q116 0 199 83t83 200t-83 200t-199 83q-117 0 -200 -83t-83 -200zM268 934v432h88q119 0 119 -123 q0 -87 -49 -117l57 -192h-67l-51 174h-33v-174h-64zM332 1180h16q60 0 60 61q0 51 -54 51h-22v-112z" />
<glyph unicode="&#xaf;" horiz-adv-x="481" d="M10 1481v51q0 41 22 53q17 10 70 10h277q53 0 72.5 -11t19.5 -52v-51q0 -41 -19.5 -52.5t-72.5 -11.5h-277q-53 0 -70 10q-22 13 -22 54z" />
<glyph unicode="&#xb4;" horiz-adv-x="381" d="M-5 1435q0 13 9 27l92 121q25 33 45 33h181q28 0 28 -27q0 -15 -20 -33l-142 -120q0 -1 -1 -2q-20 -17 -44 -17h-127q-21 0 -21 18z" />
<glyph unicode="&#xb7;" horiz-adv-x="287" d="M20 645v121q0 53 11.5 72.5t52.5 19.5h119q40 0 53 -21q10 -18 10 -71v-121q0 -53 -10 -71q-13 -21 -53 -21h-119q-41 0 -53 21q-11 18 -11 71z" />
<glyph unicode="&#xb8;" horiz-adv-x="252" d="M0 -153q0 44 24 56q17 8 56 8h43q27 0 27 31q0 18 -29 111h98q33 -107 33 -165q0 -168 -107 -168h-73q-61 0 -69 36q-3 15 -3 46v45z" />
<glyph unicode="&#xbb;" horiz-adv-x="431" d="M10 369v145q0 24 21 53l59 84l-65 95q-15 20 -15 57v137q0 28 13 28q8 0 19 -9l126 -93q26 -19 26 -78v-264q0 -62 -32 -86l-126 -90q-26 -13 -26 21zM237 369v145q0 24 20 53l60 84l-66 95q-14 20 -14 57v137q0 28 13 28q7 0 19 -9l125 -93q27 -19 27 -78v-264 q0 -62 -33 -86l-125 -90q-26 -13 -26 21z" />
<glyph unicode="&#xbf;" horiz-adv-x="549" d="M23 283q0 152 53 264l80 168q20 43 20 106v133q0 60 64 60h102q53 0 63 -33q5 -15 5 -43v-186q0 -64 -21 -107l-80 -168q-45 -95 -45 -158q0 -77 68 -77h135q68 0 68 -86v-70q0 -86 -68 -86h-246q-110 0 -151 50q-47 59 -47 233zM176 1217v57q0 53 11.5 72.5t52.5 19.5 h106q41 0 52.5 -19.5t11.5 -72.5v-57q0 -54 -11 -71q-12 -22 -53 -22h-106q-41 0 -54 22q-10 17 -10 71z" />
<glyph unicode="&#xc0;" horiz-adv-x="760" d="M6 31l166 1257q10 78 86 78h238q68 0 79 -80l179 -1255q4 -31 -31 -31h-195q-29 0 -34 37l-39 289q-5 32 -35 32h-86q-31 0 -35 -32l-33 -293q-3 -33 -37 -33h-188q-39 0 -35 31zM141 1589q0 27 27 27h180q20 0 45 -33l93 -121q10 -14 10 -27q0 -18 -23 -18h-127 q-23 0 -45 19l-140 120q-20 18 -20 33zM324 623q-4 -23 26 -23h51q31 0 29 23l-39 471q-2 30 -16 30t-17 -32z" />
<glyph unicode="&#xc1;" horiz-adv-x="760" d="M6 31l166 1257q10 78 86 78h238q68 0 79 -80l179 -1255q4 -31 -31 -31h-195q-29 0 -34 37l-39 289q-5 32 -35 32h-86q-31 0 -35 -32l-33 -293q-3 -33 -37 -33h-188q-39 0 -35 31zM259 1435q0 13 9 27l92 121q25 33 45 33h181q28 0 28 -27q0 -15 -20 -33l-142 -120 q0 -1 -1 -2q-20 -17 -44 -17h-127q-21 0 -21 18zM324 623q-4 -23 26 -23h51q31 0 29 23l-39 471q-2 30 -16 30t-17 -32z" />
<glyph unicode="&#xc2;" horiz-adv-x="760" d="M6 31l166 1257q10 78 86 78h238q68 0 79 -80l179 -1255q4 -31 -31 -31h-195q-29 0 -34 37l-39 289q-5 32 -35 32h-86q-31 0 -35 -32l-33 -293q-3 -33 -37 -33h-188q-39 0 -35 31zM147 1432q0 9 4 18l70 134q16 31 55 31h211q39 0 55 -31l70 -134q5 -9 5 -18 q0 -15 -19 -15h-111q-31 0 -47 20l-59 78l-58 -78q-15 -20 -47 -20h-110q-19 0 -19 15zM324 623q-4 -23 26 -23h51q31 0 29 23l-39 471q-2 30 -16 30t-17 -32z" />
<glyph unicode="&#xc3;" horiz-adv-x="760" d="M6 31l166 1257q10 78 86 78h238q68 0 79 -80l179 -1255q4 -31 -31 -31h-195q-29 0 -34 37l-39 289q-5 32 -35 32h-86q-31 0 -35 -32l-33 -293q-3 -33 -37 -33h-188q-39 0 -35 31zM129 1470v88q0 58 51 58h82q12 0 35 -7l145 -43q19 -5 25 -5q8 0 8 12v11q0 32 33 32h51 q52 0 52 -52v-89q0 -58 -52 -58h-82q-11 0 -34 7l-145 43q-19 6 -25 6q-9 0 -9 -13v-11q0 -32 -32 -32h-52q-51 0 -51 53zM324 623q-4 -23 26 -23h51q31 0 29 23l-39 471q-2 30 -16 30t-17 -32z" />
<glyph unicode="&#xc4;" horiz-adv-x="760" d="M6 31l166 1257q10 78 86 78h238q68 0 79 -80l179 -1255q4 -31 -31 -31h-195q-29 0 -34 37l-39 289q-5 32 -35 32h-86q-31 0 -35 -32l-33 -293q-3 -33 -37 -33h-188q-39 0 -35 31zM161 1480v79q0 63 64 63h59q64 0 64 -63v-79q0 -63 -64 -63h-59q-64 0 -64 63zM324 623 q-4 -23 26 -23h51q31 0 29 23l-39 471q-2 30 -16 30t-17 -32zM409 1480v79q0 63 64 63h59q64 0 64 -63v-79q0 -63 -64 -63h-59q-64 0 -64 63z" />
<glyph unicode="&#xc5;" horiz-adv-x="760" d="M6 31l166 1257q9 68 66 76q-31 47 -31 92q0 77 46.5 126.5t117.5 49.5q70 0 115.5 -50t45.5 -128q0 -50 -28 -89q61 -5 71 -79l179 -1255q4 -31 -31 -31h-195q-29 0 -34 37l-39 289q-5 32 -35 32h-86q-31 0 -35 -32l-33 -293q-3 -33 -37 -33h-188q-39 0 -35 31zM305 1454 q0 -78 66 -78q65 0 65 76q0 80 -65 80q-66 0 -66 -78zM324 623q-4 -23 26 -23h51q31 0 29 23l-39 471q-2 30 -16 30t-17 -32z" />
<glyph unicode="&#xc6;" horiz-adv-x="1047" d="M6 31l270 1257q17 78 95 78h583q35 0 48 -11q18 -15 18 -69v-76q0 -68 -30 -80q-13 -6 -36 -6h-200q-28 0 -34 -14q-3 -9 -3 -31v-190q0 -30 5.5 -36.5t31.5 -6.5h102q59 0 59 -70v-104q0 -68 -59 -68h-102q-24 0 -30.5 -7t-6.5 -24v-286q0 -45 43 -45h203q73 0 73 -88 v-66q0 -88 -69 -88h-457q-31 0 -31 37v289q0 32 -30 32h-89q-30 0 -36 -32l-58 -293q-6 -33 -41 -33h-188q-37 0 -31 31zM373 623q-4 -23 24 -23h52q30 0 30 23v471q0 30 -12 30q-15 0 -21 -32z" />
<glyph unicode="&#xc7;" horiz-adv-x="594" d="M29 940q3 190 47 292q59 134 194 134h254q64 0 64 -72v-92q0 -50 -14.5 -64t-53.5 -14h-155q-60 0 -72 -60q-12 -65 -12 -384q0 -288 -3 -254q12 -184 82 -184h160q66 0 66 -70v-98q0 -74 -62 -74h-116q18 -65 18 -112q0 -168 -107 -168h-73q-61 0 -69 36q-3 15 -3 46v45 q0 44 24 56q17 8 56 8h43q27 0 27 31q0 13 -13 58h-30q-155 0 -200.5 125t-45.5 532q0 641 -6 283z" />
<glyph unicode="&#xc8;" horiz-adv-x="616" d="M53 90v1186q0 90 70 90h405q35 0 48 -11q18 -15 18 -69v-76q0 -68 -30 -80q-13 -6 -36 -6h-200q-28 0 -34 -14q-3 -9 -3 -31v-190q0 -30 5.5 -36.5t31.5 -6.5h102q59 0 59 -70v-104q0 -68 -59 -68h-102q-24 0 -30.5 -7t-6.5 -24v-286q0 -45 43 -45h203q73 0 73 -88v-66 q0 -88 -69 -88h-418q-48 0 -61 27q-9 19 -9 63zM90 1589q0 27 27 27h180q20 0 45 -33l93 -121q10 -14 10 -27q0 -18 -23 -18h-127q-23 0 -45 19l-140 120q-20 18 -20 33z" />
<glyph unicode="&#xc9;" horiz-adv-x="616" d="M53 90v1186q0 90 70 90h405q35 0 48 -11q18 -15 18 -69v-76q0 -68 -30 -80q-13 -6 -36 -6h-200q-28 0 -34 -14q-3 -9 -3 -31v-190q0 -30 5.5 -36.5t31.5 -6.5h102q59 0 59 -70v-104q0 -68 -59 -68h-102q-24 0 -30.5 -7t-6.5 -24v-286q0 -45 43 -45h203q73 0 73 -88v-66 q0 -88 -69 -88h-418q-48 0 -61 27q-9 19 -9 63zM153 1435q0 13 9 27l92 121q25 33 45 33h181q28 0 28 -27q0 -15 -20 -33l-142 -120q0 -1 -1 -2q-20 -17 -44 -17h-127q-21 0 -21 18z" />
<glyph unicode="&#xca;" horiz-adv-x="616" d="M53 90v1186q0 90 70 90h405q35 0 48 -11q18 -15 18 -69v-76q0 -68 -30 -80q-13 -6 -36 -6h-200q-28 0 -34 -14q-3 -9 -3 -31v-190q0 -30 5.5 -36.5t31.5 -6.5h102q59 0 59 -70v-104q0 -68 -59 -68h-102q-24 0 -30.5 -7t-6.5 -24v-286q0 -45 43 -45h203q73 0 73 -88v-66 q0 -88 -69 -88h-418q-48 0 -61 27q-9 19 -9 63zM65 1432q0 9 4 18l70 134q16 31 55 31h211q39 0 55 -31l70 -134q5 -9 5 -18q0 -15 -19 -15h-111q-31 0 -47 20l-59 78l-58 -78q-15 -20 -47 -20h-110q-19 0 -19 15z" />
<glyph unicode="&#xcb;" horiz-adv-x="616" d="M53 90v1186q0 90 70 90h405q35 0 48 -11q18 -15 18 -69v-76q0 -68 -30 -80q-13 -6 -36 -6h-200q-28 0 -34 -14q-3 -9 -3 -31v-190q0 -30 5.5 -36.5t31.5 -6.5h102q59 0 59 -70v-104q0 -68 -59 -68h-102q-24 0 -30.5 -7t-6.5 -24v-286q0 -45 43 -45h203q73 0 73 -88v-66 q0 -88 -69 -88h-418q-48 0 -61 27q-9 19 -9 63zM83 1480v79q0 63 64 63h59q64 0 64 -63v-79q0 -63 -64 -63h-59q-64 0 -64 63zM331 1480v79q0 63 64 63h59q64 0 64 -63v-79q0 -63 -64 -63h-59q-64 0 -64 63z" />
<glyph unicode="&#xcc;" horiz-adv-x="348" d="M-28 1589q0 27 27 27h180q20 0 45 -33l93 -121q10 -14 10 -27q0 -18 -23 -18h-127q-23 0 -45 19l-140 120q-20 18 -20 33zM53 90v1184q0 92 68 92h110q64 0 64 -92v-1188q0 -49 -11 -66q-13 -20 -57 -20h-102q-39 0 -54 14q-18 16 -18 76z" />
<glyph unicode="&#xcd;" horiz-adv-x="348" d="M18 1435q0 13 9 27l92 121q25 33 45 33h181q28 0 28 -27q0 -15 -20 -33l-142 -120q0 -1 -1 -2q-20 -17 -44 -17h-127q-21 0 -21 18zM53 90v1184q0 92 68 92h110q64 0 64 -92v-1188q0 -49 -11 -66q-13 -20 -57 -20h-102q-39 0 -54 14q-18 16 -18 76z" />
<glyph unicode="&#xce;" horiz-adv-x="348" d="M-57 1432q0 9 4 18l70 134q16 31 55 31h211q39 0 55 -31l70 -134q5 -9 5 -18q0 -15 -19 -15h-111q-31 0 -47 20l-59 78l-58 -78q-15 -20 -47 -20h-110q-19 0 -19 15zM53 90v1184q0 92 68 92h110q64 0 64 -92v-1188q0 -49 -11 -66q-13 -20 -57 -20h-102q-39 0 -54 14 q-18 16 -18 76z" />
<glyph unicode="&#xcf;" horiz-adv-x="348" d="M-36 1480v79q0 63 64 63h59q64 0 64 -63v-79q0 -63 -64 -63h-59q-64 0 -64 63zM53 90v1184q0 92 68 92h110q64 0 64 -92v-1188q0 -49 -11 -66q-13 -20 -57 -20h-102q-39 0 -54 14q-18 16 -18 76zM212 1480v79q0 63 64 63h59q64 0 64 -63v-79q0 -63 -64 -63h-59 q-64 0 -64 63z" />
<glyph unicode="&#xd0;" horiz-adv-x="750" d="M-52 682v51q0 41 21 53q18 11 70 11h14v477q0 92 66 92h350q161 0 208 -154q38 -123 38 -528q0 -306 -19 -441q-21 -146 -77 -198q-49 -45 -162 -45h-332q-52 0 -64 26q-8 17 -8 62v530h-14q-52 0 -70 11q-21 12 -21 53zM287 297q0 -38 11.5 -46.5t63.5 -8.5q56 0 73 18 q23 24 30 111q6 74 6 293q0 249 -5 321q-6 96 -30 121q-17 18 -80 18q-43 0 -56 -10t-13 -51v-266h10q53 0 72.5 -11.5t19.5 -52.5v-51q0 -41 -19.5 -52.5t-72.5 -11.5h-10v-321z" />
<glyph unicode="&#xd1;" horiz-adv-x="801" d="M53 92v1184q0 60 19 77q15 13 53 13h94q38 0 52 -10.5t28 -52.5l172 -508q10 -29 23 -29q10 0 10 39v471q0 90 63 90h107q74 0 74 -92v-1182q0 -60 -19 -78q-15 -14 -53 -14h-94q-38 0 -52 10.5t-28 52.5l-172 510q-10 29 -23 29q-10 0 -10 -39v-473q0 -90 -64 -90h-106 q-74 0 -74 92zM135 1470v88q0 58 51 58h82q12 0 35 -7l145 -43q19 -5 25 -5q8 0 8 12v11q0 32 33 32h51q52 0 52 -52v-89q0 -58 -52 -58h-82q-11 0 -34 7l-145 43q-19 6 -25 6q-9 0 -9 -13v-11q0 -32 -32 -32h-52q-51 0 -51 53z" />
<glyph unicode="&#xd2;" d="M35 686q0 379 40 500q65 194 290 194q223 0 288 -194q41 -123 41 -500q0 -380 -41 -505q-66 -198 -288 -198q-224 0 -290 198q-40 124 -40 505zM135 1589q0 27 27 27h180q20 0 45 -33l93 -121q10 -14 10 -27q0 -18 -23 -18h-127q-23 0 -45 19l-140 120q-20 18 -20 33z M274 686q0 -285 13 -357q15 -87 78 -87t78 87q12 66 12 357q0 284 -13 353q-15 83 -77 83q-64 0 -79 -83q-12 -64 -12 -353z" />
<glyph unicode="&#xd3;" d="M35 686q0 379 40 500q65 194 290 194q223 0 288 -194q41 -123 41 -500q0 -380 -41 -505q-66 -198 -288 -198q-224 0 -290 198q-40 124 -40 505zM214 1435q0 13 9 27l92 121q25 33 45 33h181q28 0 28 -27q0 -15 -20 -33l-142 -120q0 -1 -1 -2q-20 -17 -44 -17h-127 q-21 0 -21 18zM274 686q0 -285 13 -357q15 -87 78 -87t78 87q12 66 12 357q0 284 -13 353q-15 83 -77 83q-64 0 -79 -83q-12 -64 -12 -353z" />
<glyph unicode="&#xd4;" d="M35 686q0 379 40 500q65 194 290 194q223 0 288 -194q41 -123 41 -500q0 -380 -41 -505q-66 -198 -288 -198q-224 0 -290 198q-40 124 -40 505zM121 1432q0 9 4 18l70 134q16 31 55 31h211q39 0 55 -31l70 -134q5 -9 5 -18q0 -15 -19 -15h-111q-31 0 -47 20l-59 78 l-58 -78q-15 -20 -47 -20h-110q-19 0 -19 15zM274 686q0 -285 13 -357q15 -87 78 -87t78 87q12 66 12 357q0 284 -13 353q-15 83 -77 83q-64 0 -79 -83q-12 -64 -12 -353z" />
<glyph unicode="&#xd5;" d="M35 686q0 379 40 500q65 194 290 194q223 0 288 -194q41 -123 41 -500q0 -380 -41 -505q-66 -198 -288 -198q-224 0 -290 198q-40 124 -40 505zM114 1470v88q0 58 51 58h82q12 0 35 -7l145 -43q19 -5 25 -5q8 0 8 12v11q0 32 33 32h51q52 0 52 -52v-89q0 -58 -52 -58h-82 q-11 0 -34 7l-145 43q-19 6 -25 6q-9 0 -9 -13v-11q0 -32 -32 -32h-52q-51 0 -51 53zM274 686q0 -285 13 -357q15 -87 78 -87t78 87q12 66 12 357q0 284 -13 353q-15 83 -77 83q-64 0 -79 -83q-12 -64 -12 -353z" />
<glyph unicode="&#xd6;" d="M35 686q0 379 40 500q65 194 290 194q223 0 288 -194q41 -123 41 -500q0 -380 -41 -505q-66 -198 -288 -198q-224 0 -290 198q-40 124 -40 505zM133 1480v79q0 63 64 63h59q64 0 64 -63v-79q0 -63 -64 -63h-59q-64 0 -64 63zM274 686q0 -285 13 -357q15 -87 78 -87t78 87 q12 66 12 357q0 284 -13 353q-15 83 -77 83q-64 0 -79 -83q-12 -64 -12 -353zM381 1480v79q0 63 64 63h59q64 0 64 -63v-79q0 -63 -64 -63h-59q-64 0 -64 63z" />
<glyph unicode="&#xd8;" d="M-6 17v1q1 10 9 29l69 146q-37 124 -37 493q0 378 40 500q65 194 289 194q152 0 228 -84l17 38q16 33 51 33h41q37 0 37 -18q0 -9 -6 -23l-74 -156q35 -121 35 -484q0 -381 -40 -505q-66 -198 -289 -198q-154 0 -230 89l-20 -41q-15 -31 -40 -31h-45q-35 0 -35 17z M273 686l1 -65l174 371q-6 76 -24.5 103.5t-59.5 27.5q-63 0 -79 -83q-12 -65 -12 -354zM280 379q12 -137 84 -137q63 0 79 87q12 67 12 357v59z" />
<glyph unicode="&#xd9;" horiz-adv-x="741" d="M41 379v897q0 48 12 67q16 23 60 23h108q41 0 53 -24q9 -16 9 -60v-934q0 -106 90 -106q86 0 86 108v932q0 49 12 66.5t53 17.5h113q49 0 58 -30q5 -17 5 -54v-893q0 -196 -57 -287q-77 -119 -276 -119q-193 0 -265 103q-61 87 -61 293zM129 1589q0 27 27 27h180 q20 0 45 -33l93 -121q10 -14 10 -27q0 -18 -23 -18h-127q-23 0 -45 19l-140 120q-20 18 -20 33z" />
<glyph unicode="&#xda;" horiz-adv-x="741" d="M41 379v897q0 48 12 67q16 23 60 23h108q41 0 53 -24q9 -16 9 -60v-934q0 -106 90 -106q86 0 86 108v932q0 49 12 66.5t53 17.5h113q49 0 58 -30q5 -17 5 -54v-893q0 -196 -57 -287q-77 -119 -276 -119q-193 0 -265 103q-61 87 -61 293zM220 1435q0 13 9 27l92 121 q25 33 45 33h181q28 0 28 -27q0 -15 -20 -33l-142 -120q0 -1 -1 -2q-20 -17 -44 -17h-127q-21 0 -21 18z" />
<glyph unicode="&#xdb;" horiz-adv-x="741" d="M41 379v897q0 48 12 67q16 23 60 23h108q41 0 53 -24q9 -16 9 -60v-934q0 -106 90 -106q86 0 86 108v932q0 49 12 66.5t53 17.5h113q49 0 58 -30q5 -17 5 -54v-893q0 -196 -57 -287q-77 -119 -276 -119q-193 0 -265 103q-61 87 -61 293zM125 1432q0 9 4 18l70 134 q16 31 55 31h211q39 0 55 -31l70 -134q5 -9 5 -18q0 -15 -19 -15h-111q-31 0 -47 20l-59 78l-58 -78q-15 -20 -47 -20h-110q-19 0 -19 15z" />
<glyph unicode="&#xdc;" horiz-adv-x="741" d="M41 379v897q0 48 12 67q16 23 60 23h108q41 0 53 -24q9 -16 9 -60v-934q0 -106 90 -106q86 0 86 108v932q0 49 12 66.5t53 17.5h113q49 0 58 -30q5 -17 5 -54v-893q0 -196 -57 -287q-77 -119 -276 -119q-193 0 -265 103q-61 87 -61 293zM137 1480v79q0 63 64 63h59 q64 0 64 -63v-79q0 -63 -64 -63h-59q-64 0 -64 63zM385 1480v79q0 63 64 63h59q64 0 64 -63v-79q0 -63 -64 -63h-59q-64 0 -64 63z" />
<glyph unicode="&#xdd;" horiz-adv-x="705" d="M6 1294q-20 72 37 72h137q42 0 53 -49l105 -445q7 -22 14 -22t15 22l104 445q12 49 53 49h138q57 0 36 -72l-225 -772v-434q0 -56 -14 -72t-53 -16h-107q-45 0 -57 21q-11 18 -11 67v434zM194 1435q0 13 9 27l92 121q25 33 45 33h181q28 0 28 -27q0 -15 -20 -33 l-142 -120q0 -1 -1 -2q-20 -17 -44 -17h-127q-21 0 -21 18z" />
<glyph unicode="&#xde;" horiz-adv-x="702" d="M53 90v1184q0 92 68 92h110q64 0 64 -92v-129h139q262 0 262 -436q0 -422 -229 -422h-172v-201q0 -49 -11 -66q-13 -20 -57 -20h-102q-39 0 -54 14q-18 16 -18 76zM295 528h98q47 0 59 75q3 21 3 108q0 118 -16 158q-14 34 -52 34h-92v-375z" />
<glyph unicode="&#xdf;" horiz-adv-x="782" d="M53 92v1186q0 88 66 88h426q120 0 166 -100q37 -77 37 -244q0 -242 -111 -309q129 -51 129 -344q0 -369 -221 -369h-160q-24 0 -31 11q-6 8 -6 30v149q0 52 37 52h35q70 0 90 54q10 28 10 116q0 105 -24 143q-20 32 -74 31l-12 -2q-24 0 -31 11q-4 8 -4 30v151 q0 51 35 51h10q61 0 78 48q10 25 10 100q0 149 -86 149h-94q-24 0 -29.5 -9.5t-5.5 -31.5v-991q0 -56 -13.5 -74t-50.5 -18h-110q-43 0 -57 27q-9 18 -9 65z" />
<glyph unicode="&#xe0;" horiz-adv-x="760" d="M6 31l166 1257q10 78 86 78h238q68 0 79 -80l179 -1255q4 -31 -31 -31h-195q-29 0 -34 37l-39 289q-5 32 -35 32h-86q-31 0 -35 -32l-33 -293q-3 -33 -37 -33h-188q-39 0 -35 31zM141 1589q0 27 27 27h180q20 0 45 -33l93 -121q10 -14 10 -27q0 -18 -23 -18h-127 q-23 0 -45 19l-140 120q-20 18 -20 33zM324 623q-4 -23 26 -23h51q31 0 29 23l-39 471q-2 30 -16 30t-17 -32z" />
<glyph unicode="&#xe1;" horiz-adv-x="760" d="M6 31l166 1257q10 78 86 78h238q68 0 79 -80l179 -1255q4 -31 -31 -31h-195q-29 0 -34 37l-39 289q-5 32 -35 32h-86q-31 0 -35 -32l-33 -293q-3 -33 -37 -33h-188q-39 0 -35 31zM259 1435q0 13 9 27l92 121q25 33 45 33h181q28 0 28 -27q0 -15 -20 -33l-142 -120 q0 -1 -1 -2q-20 -17 -44 -17h-127q-21 0 -21 18zM324 623q-4 -23 26 -23h51q31 0 29 23l-39 471q-2 30 -16 30t-17 -32z" />
<glyph unicode="&#xe2;" horiz-adv-x="760" d="M6 31l166 1257q10 78 86 78h238q68 0 79 -80l179 -1255q4 -31 -31 -31h-195q-29 0 -34 37l-39 289q-5 32 -35 32h-86q-31 0 -35 -32l-33 -293q-3 -33 -37 -33h-188q-39 0 -35 31zM147 1432q0 9 4 18l70 134q16 31 55 31h211q39 0 55 -31l70 -134q5 -9 5 -18 q0 -15 -19 -15h-111q-31 0 -47 20l-59 78l-58 -78q-15 -20 -47 -20h-110q-19 0 -19 15zM324 623q-4 -23 26 -23h51q31 0 29 23l-39 471q-2 30 -16 30t-17 -32z" />
<glyph unicode="&#xe3;" horiz-adv-x="760" d="M6 31l166 1257q10 78 86 78h238q68 0 79 -80l179 -1255q4 -31 -31 -31h-195q-29 0 -34 37l-39 289q-5 32 -35 32h-86q-31 0 -35 -32l-33 -293q-3 -33 -37 -33h-188q-39 0 -35 31zM129 1470v88q0 58 51 58h82q12 0 35 -7l145 -43q19 -5 25 -5q8 0 8 12v11q0 32 33 32h51 q52 0 52 -52v-89q0 -58 -52 -58h-82q-11 0 -34 7l-145 43q-19 6 -25 6q-9 0 -9 -13v-11q0 -32 -32 -32h-52q-51 0 -51 53zM324 623q-4 -23 26 -23h51q31 0 29 23l-39 471q-2 30 -16 30t-17 -32z" />
<glyph unicode="&#xe4;" horiz-adv-x="760" d="M6 31l166 1257q10 78 86 78h238q68 0 79 -80l179 -1255q4 -31 -31 -31h-195q-29 0 -34 37l-39 289q-5 32 -35 32h-86q-31 0 -35 -32l-33 -293q-3 -33 -37 -33h-188q-39 0 -35 31zM161 1480v79q0 63 64 63h59q64 0 64 -63v-79q0 -63 -64 -63h-59q-64 0 -64 63zM324 623 q-4 -23 26 -23h51q31 0 29 23l-39 471q-2 30 -16 30t-17 -32zM409 1480v79q0 63 64 63h59q64 0 64 -63v-79q0 -63 -64 -63h-59q-64 0 -64 63z" />
<glyph unicode="&#xe5;" horiz-adv-x="760" d="M6 31l166 1257q9 68 66 76q-31 47 -31 92q0 77 46.5 126.5t117.5 49.5q70 0 115.5 -50t45.5 -128q0 -50 -28 -89q61 -5 71 -79l179 -1255q4 -31 -31 -31h-195q-29 0 -34 37l-39 289q-5 32 -35 32h-86q-31 0 -35 -32l-33 -293q-3 -33 -37 -33h-188q-39 0 -35 31zM305 1454 q0 -78 66 -78q65 0 65 76q0 80 -65 80q-66 0 -66 -78zM324 623q-4 -23 26 -23h51q31 0 29 23l-39 471q-2 30 -16 30t-17 -32z" />
<glyph unicode="&#xe6;" horiz-adv-x="1047" d="M6 31l270 1257q17 78 95 78h583q35 0 48 -11q18 -15 18 -69v-76q0 -68 -30 -80q-13 -6 -36 -6h-200q-28 0 -34 -14q-3 -9 -3 -31v-190q0 -30 5.5 -36.5t31.5 -6.5h102q59 0 59 -70v-104q0 -68 -59 -68h-102q-24 0 -30.5 -7t-6.5 -24v-286q0 -45 43 -45h203q73 0 73 -88 v-66q0 -88 -69 -88h-457q-31 0 -31 37v289q0 32 -30 32h-89q-30 0 -36 -32l-58 -293q-6 -33 -41 -33h-188q-37 0 -31 31zM373 623q-4 -23 24 -23h52q30 0 30 23v471q0 30 -12 30q-15 0 -21 -32z" />
<glyph unicode="&#xe7;" horiz-adv-x="594" d="M29 940q3 190 47 292q59 134 194 134h254q64 0 64 -72v-92q0 -50 -14.5 -64t-53.5 -14h-155q-60 0 -72 -60q-12 -65 -12 -384q0 -288 -3 -254q12 -184 82 -184h160q66 0 66 -70v-98q0 -74 -62 -74h-116q18 -65 18 -112q0 -168 -107 -168h-73q-61 0 -69 36q-3 15 -3 46v45 q0 44 24 56q17 8 56 8h43q27 0 27 31q0 13 -13 58h-30q-154 0 -200 125t-46 532q0 641 -6 283z" />
<glyph unicode="&#xe8;" horiz-adv-x="616" d="M53 90v1186q0 90 70 90h405q35 0 48 -11q18 -15 18 -69v-76q0 -68 -30 -80q-13 -6 -36 -6h-200q-28 0 -34 -14q-3 -9 -3 -31v-190q0 -30 5.5 -36.5t31.5 -6.5h102q59 0 59 -70v-104q0 -68 -59 -68h-102q-24 0 -30.5 -7t-6.5 -24v-286q0 -45 43 -45h203q73 0 73 -88v-66 q0 -88 -69 -88h-418q-48 0 -61 27q-9 19 -9 63zM90 1589q0 27 27 27h180q20 0 45 -33l93 -121q10 -14 10 -27q0 -18 -23 -18h-127q-23 0 -45 19l-140 120q-20 18 -20 33z" />
<glyph unicode="&#xe9;" horiz-adv-x="616" d="M53 90v1186q0 90 70 90h405q35 0 48 -11q18 -15 18 -69v-76q0 -68 -30 -80q-13 -6 -36 -6h-200q-28 0 -34 -14q-3 -9 -3 -31v-190q0 -30 5.5 -36.5t31.5 -6.5h102q59 0 59 -70v-104q0 -68 -59 -68h-102q-24 0 -30.5 -7t-6.5 -24v-286q0 -45 43 -45h203q73 0 73 -88v-66 q0 -88 -69 -88h-418q-48 0 -61 27q-9 19 -9 63zM153 1435q0 13 9 27l92 121q25 33 45 33h181q28 0 28 -27q0 -15 -20 -33l-142 -120q0 -1 -1 -2q-20 -17 -44 -17h-127q-21 0 -21 18z" />
<glyph unicode="&#xea;" horiz-adv-x="616" d="M53 90v1186q0 90 70 90h405q35 0 48 -11q18 -15 18 -69v-76q0 -68 -30 -80q-13 -6 -36 -6h-200q-28 0 -34 -14q-3 -9 -3 -31v-190q0 -30 5.5 -36.5t31.5 -6.5h102q59 0 59 -70v-104q0 -68 -59 -68h-102q-24 0 -30.5 -7t-6.5 -24v-286q0 -45 43 -45h203q73 0 73 -88v-66 q0 -88 -69 -88h-418q-48 0 -61 27q-9 19 -9 63zM65 1432q0 9 4 18l70 134q16 31 55 31h211q39 0 55 -31l70 -134q5 -9 5 -18q0 -15 -19 -15h-111q-31 0 -47 20l-59 78l-58 -78q-15 -20 -47 -20h-110q-19 0 -19 15z" />
<glyph unicode="&#xeb;" horiz-adv-x="616" d="M53 90v1186q0 90 70 90h405q35 0 48 -11q18 -15 18 -69v-76q0 -68 -30 -80q-13 -6 -36 -6h-200q-28 0 -34 -14q-3 -9 -3 -31v-190q0 -30 5.5 -36.5t31.5 -6.5h102q59 0 59 -70v-104q0 -68 -59 -68h-102q-24 0 -30.5 -7t-6.5 -24v-286q0 -45 43 -45h203q73 0 73 -88v-66 q0 -88 -69 -88h-418q-48 0 -61 27q-9 19 -9 63zM83 1480v79q0 63 64 63h59q64 0 64 -63v-79q0 -63 -64 -63h-59q-64 0 -64 63zM331 1480v79q0 63 64 63h59q64 0 64 -63v-79q0 -63 -64 -63h-59q-64 0 -64 63z" />
<glyph unicode="&#xec;" horiz-adv-x="348" d="M-28 1589q0 27 27 27h180q20 0 45 -33l93 -121q10 -14 10 -27q0 -18 -23 -18h-127q-23 0 -45 19l-140 120q-20 18 -20 33zM53 90v1184q0 92 68 92h110q64 0 64 -92v-1188q0 -49 -11 -66q-13 -20 -57 -20h-102q-39 0 -54 14q-18 16 -18 76z" />
<glyph unicode="&#xed;" horiz-adv-x="348" d="M18 1435q0 13 9 27l92 121q25 33 45 33h181q28 0 28 -27q0 -15 -20 -33l-142 -120q0 -1 -1 -2q-20 -17 -44 -17h-127q-21 0 -21 18zM53 90v1184q0 92 68 92h110q64 0 64 -92v-1188q0 -49 -11 -66q-13 -20 -57 -20h-102q-39 0 -54 14q-18 16 -18 76z" />
<glyph unicode="&#xee;" horiz-adv-x="348" d="M-57 1432q0 9 4 18l70 134q16 31 55 31h211q39 0 55 -31l70 -134q5 -9 5 -18q0 -15 -19 -15h-111q-31 0 -47 20l-59 78l-58 -78q-15 -20 -47 -20h-110q-19 0 -19 15zM53 90v1184q0 92 68 92h110q64 0 64 -92v-1188q0 -49 -11 -66q-13 -20 -57 -20h-102q-39 0 -54 14 q-18 16 -18 76z" />
<glyph unicode="&#xef;" horiz-adv-x="348" d="M-36 1480v79q0 63 64 63h59q64 0 64 -63v-79q0 -63 -64 -63h-59q-64 0 -64 63zM53 90v1184q0 92 68 92h110q64 0 64 -92v-1188q0 -49 -11 -66q-13 -20 -57 -20h-102q-39 0 -54 14q-18 16 -18 76zM212 1480v79q0 63 64 63h59q64 0 64 -63v-79q0 -63 -64 -63h-59 q-64 0 -64 63z" />
<glyph unicode="&#xf0;" horiz-adv-x="750" d="M-52 682v51q0 41 21 53q18 11 70 11h14v477q0 92 66 92h350q161 0 208 -154q38 -123 38 -528q0 -306 -19 -441q-21 -146 -77 -198q-49 -45 -162 -45h-332q-52 0 -64 26q-8 17 -8 62v530h-14q-52 0 -70 11q-21 12 -21 53zM287 297q0 -38 11.5 -46.5t63.5 -8.5q56 0 73 18 q23 24 30 111q6 74 6 293q0 249 -5 321q-6 96 -30 121q-17 18 -80 18q-43 0 -56 -10t-13 -51v-266h10q53 0 72.5 -11.5t19.5 -52.5v-51q0 -41 -19.5 -52.5t-72.5 -11.5h-10v-321z" />
<glyph unicode="&#xf1;" horiz-adv-x="801" d="M53 92v1184q0 60 19 77q15 13 53 13h94q38 0 52 -10.5t28 -52.5l172 -508q10 -29 23 -29q10 0 10 39v471q0 90 63 90h107q74 0 74 -92v-1182q0 -60 -19 -78q-15 -14 -53 -14h-94q-38 0 -52 10.5t-28 52.5l-172 510q-10 29 -23 29q-10 0 -10 -39v-473q0 -90 -64 -90h-106 q-74 0 -74 92zM135 1470v88q0 58 51 58h82q12 0 35 -7l145 -43q19 -5 25 -5q8 0 8 12v11q0 32 33 32h51q52 0 52 -52v-89q0 -58 -52 -58h-82q-11 0 -34 7l-145 43q-19 6 -25 6q-9 0 -9 -13v-11q0 -32 -32 -32h-52q-51 0 -51 53z" />
<glyph unicode="&#xf2;" d="M35 686q0 379 40 500q65 194 290 194q223 0 288 -194q41 -123 41 -500q0 -380 -41 -505q-66 -198 -288 -198q-224 0 -290 198q-40 124 -40 505zM135 1589q0 27 27 27h180q20 0 45 -33l93 -121q10 -14 10 -27q0 -18 -23 -18h-127q-23 0 -45 19l-140 120q-20 18 -20 33z M274 686q0 -285 13 -357q15 -87 78 -87t78 87q12 66 12 357q0 284 -13 353q-15 83 -77 83q-64 0 -79 -83q-12 -64 -12 -353z" />
<glyph unicode="&#xf3;" d="M35 686q0 379 40 500q65 194 290 194q223 0 288 -194q41 -123 41 -500q0 -380 -41 -505q-66 -198 -288 -198q-224 0 -290 198q-40 124 -40 505zM214 1435q0 13 9 27l92 121q25 33 45 33h181q28 0 28 -27q0 -15 -20 -33l-142 -120q0 -1 -1 -2q-20 -17 -44 -17h-127 q-21 0 -21 18zM274 686q0 -285 13 -357q15 -87 78 -87t78 87q12 66 12 357q0 284 -13 353q-15 83 -77 83q-64 0 -79 -83q-12 -64 -12 -353z" />
<glyph unicode="&#xf4;" d="M35 686q0 379 40 500q65 194 290 194q223 0 288 -194q41 -123 41 -500q0 -380 -41 -505q-66 -198 -288 -198q-224 0 -290 198q-40 124 -40 505zM121 1432q0 9 4 18l70 134q16 31 55 31h211q39 0 55 -31l70 -134q5 -9 5 -18q0 -15 -19 -15h-111q-31 0 -47 20l-59 78 l-58 -78q-15 -20 -47 -20h-110q-19 0 -19 15zM274 686q0 -285 13 -357q15 -87 78 -87t78 87q12 66 12 357q0 284 -13 353q-15 83 -77 83q-64 0 -79 -83q-12 -64 -12 -353z" />
<glyph unicode="&#xf5;" d="M35 686q0 379 40 500q65 194 290 194q223 0 288 -194q41 -123 41 -500q0 -380 -41 -505q-66 -198 -288 -198q-224 0 -290 198q-40 124 -40 505zM112 1470v88q0 58 51 58h82q12 0 35 -7l145 -43q19 -5 25 -5q8 0 8 12v11q0 32 33 32h51q52 0 52 -52v-89q0 -58 -52 -58h-82 q-11 0 -34 7l-145 43q-19 6 -25 6q-9 0 -9 -13v-11q0 -32 -32 -32h-52q-51 0 -51 53zM274 686q0 -285 13 -357q15 -87 78 -87t78 87q12 66 12 357q0 284 -13 353q-15 83 -77 83q-64 0 -79 -83q-12 -64 -12 -353z" />
<glyph unicode="&#xf6;" d="M35 686q0 379 40 500q65 194 290 194q223 0 288 -194q41 -123 41 -500q0 -380 -41 -505q-66 -198 -288 -198q-224 0 -290 198q-40 124 -40 505zM133 1480v79q0 63 64 63h59q64 0 64 -63v-79q0 -63 -64 -63h-59q-64 0 -64 63zM274 686q0 -285 13 -357q15 -87 78 -87t78 87 q12 66 12 357q0 284 -13 353q-15 83 -77 83q-64 0 -79 -83q-12 -64 -12 -353zM381 1480v79q0 63 64 63h59q64 0 64 -63v-79q0 -63 -64 -63h-59q-64 0 -64 63z" />
<glyph unicode="&#xf8;" d="M-6 17v1q1 10 9 29l69 146q-37 124 -37 493q0 378 40 500q65 194 289 194q152 0 228 -84l17 38q16 33 51 33h41q37 0 37 -18q0 -9 -6 -23l-74 -156q35 -121 35 -484q0 -381 -40 -505q-65 -198 -289 -198q-154 0 -230 89l-20 -41q-15 -31 -40 -31h-45q-35 0 -35 17z M273 686l1 -65l174 371q-6 76 -24.5 103.5t-59.5 27.5q-63 0 -79 -83q-12 -65 -12 -354zM280 379q12 -137 84 -137q63 0 79 87q12 67 12 357v59z" />
<glyph unicode="&#xf9;" horiz-adv-x="741" d="M41 379v897q0 48 12 67q16 23 60 23h108q41 0 53 -24q9 -16 9 -60v-934q0 -106 90 -106q86 0 86 108v932q0 49 12 66.5t53 17.5h113q49 0 58 -30q5 -17 5 -54v-893q0 -196 -57 -287q-77 -119 -276 -119q-193 0 -265 103q-61 87 -61 293zM129 1589q0 27 27 27h180 q20 0 45 -33l93 -121q10 -14 10 -27q0 -18 -23 -18h-127q-23 0 -45 19l-140 120q-20 18 -20 33z" />
<glyph unicode="&#xfa;" horiz-adv-x="741" d="M41 379v897q0 48 12 67q16 23 60 23h108q41 0 53 -24q9 -16 9 -60v-934q0 -106 90 -106q86 0 86 108v932q0 49 12 66.5t53 17.5h113q49 0 58 -30q5 -17 5 -54v-893q0 -196 -57 -287q-77 -119 -276 -119q-193 0 -265 103q-61 87 -61 293zM220 1435q0 13 9 27l92 121 q25 33 45 33h181q28 0 28 -27q0 -15 -20 -33l-142 -120q0 -1 -1 -2q-20 -17 -44 -17h-127q-21 0 -21 18z" />
<glyph unicode="&#xfb;" horiz-adv-x="741" d="M41 379v897q0 48 12 67q16 23 60 23h108q41 0 53 -24q9 -16 9 -60v-934q0 -106 90 -106q86 0 86 108v932q0 49 12 66.5t53 17.5h113q49 0 58 -30q5 -17 5 -54v-893q0 -196 -57 -287q-77 -119 -276 -119q-193 0 -265 103q-61 87 -61 293zM125 1432q0 9 4 18l70 134 q16 31 55 31h211q39 0 55 -31l70 -134q5 -9 5 -18q0 -15 -19 -15h-111q-31 0 -47 20l-59 78l-58 -78q-15 -20 -47 -20h-110q-19 0 -19 15z" />
<glyph unicode="&#xfc;" horiz-adv-x="741" d="M41 379v897q0 48 12 67q16 23 60 23h108q41 0 53 -24q9 -16 9 -60v-934q0 -106 90 -106q86 0 86 108v932q0 49 12 66.5t53 17.5h113q49 0 58 -30q5 -17 5 -54v-893q0 -196 -57 -287q-77 -119 -276 -119q-193 0 -265 103q-61 87 -61 293zM137 1480v79q0 63 64 63h59 q64 0 64 -63v-79q0 -63 -64 -63h-59q-64 0 -64 63zM385 1480v79q0 63 64 63h59q64 0 64 -63v-79q0 -63 -64 -63h-59q-64 0 -64 63z" />
<glyph unicode="&#xfd;" horiz-adv-x="705" d="M6 1294q-20 72 37 72h137q42 0 53 -49l105 -445q7 -22 14 -22t15 22l104 445q12 49 53 49h138q57 0 36 -72l-225 -772v-434q0 -56 -14 -72t-53 -16h-107q-45 0 -57 21q-11 18 -11 67v434zM194 1435q0 13 9 27l92 121q25 33 45 33h181q28 0 28 -27q0 -15 -20 -33 l-142 -120q0 -1 -1 -2q-20 -17 -44 -17h-127q-21 0 -21 18z" />
<glyph unicode="&#xfe;" horiz-adv-x="702" d="M53 90v1184q0 92 68 92h110q64 0 64 -92v-129h139q262 0 262 -436q0 -422 -229 -422h-172v-201q0 -49 -11 -66q-13 -20 -57 -20h-102q-39 0 -54 14q-18 16 -18 76zM295 528h98q47 0 59 75q3 21 3 108q0 118 -16 158q-14 34 -52 34h-92v-375z" />
<glyph unicode="&#xff;" horiz-adv-x="705" d="M6 1294q-20 72 37 72h137q42 0 53 -49l105 -445q7 -22 14 -22t15 22l104 445q12 49 53 49h138q57 0 36 -72l-225 -772v-434q0 -56 -14 -72t-53 -16h-107q-45 0 -57 21q-11 18 -11 67v434zM141 1480v79q0 63 64 63h59q64 0 64 -63v-79q0 -63 -64 -63h-59q-64 0 -64 63z M389 1480v79q0 63 64 63h59q64 0 64 -63v-79q0 -63 -64 -63h-59q-64 0 -64 63z" />
<glyph unicode="&#x152;" horiz-adv-x="1030" d="M25 686q0 379 40 500q65 194 289 194q86 0 150 -28q14 14 47 14h387q34 0 48 -11q18 -15 18 -69v-76q0 -68 -31 -80q-13 -6 -35 -6h-201q-27 0 -33 -14q-4 -9 -4 -31v-190q0 -30 6 -36.5t31 -6.5h103q59 0 59 -70v-104q0 -68 -59 -68h-103q-24 0 -30.5 -7t-6.5 -24v-286 q0 -45 43 -45h203q74 0 74 -88v-66q0 -88 -70 -88h-399q-30 0 -47 10q-64 -27 -150 -27q-224 0 -289 198q-40 124 -40 505zM261 942q1 9 1 -256q0 -283 14 -357q15 -87 78 -87t79 87q11 66 11 357q0 284 -12 353q-15 83 -78 83q-79 0 -93 -180z" />
<glyph unicode="&#x153;" horiz-adv-x="1030" d="M25 686q0 379 40 500q65 194 289 194q86 0 150 -28q14 14 47 14h387q34 0 48 -11q18 -15 18 -69v-76q0 -68 -31 -80q-13 -6 -35 -6h-201q-27 0 -33 -14q-4 -9 -4 -31v-190q0 -30 6 -36.5t31 -6.5h103q59 0 59 -70v-104q0 -68 -59 -68h-103q-24 0 -30.5 -7t-6.5 -24v-286 q0 -45 43 -45h203q74 0 74 -88v-66q0 -88 -70 -88h-399q-30 0 -47 10q-64 -27 -150 -27q-224 0 -289 198q-40 124 -40 505zM261 942q1 9 1 -256q0 -283 14 -357q15 -87 78 -87t79 87q11 66 11 357q0 284 -12 353q-15 83 -78 83q-79 0 -93 -180z" />
<glyph unicode="&#x178;" horiz-adv-x="705" d="M6 1294q-20 72 37 72h137q42 0 53 -49l105 -445q7 -22 14 -22t15 22l104 445q12 49 53 49h138q57 0 36 -72l-225 -772v-434q0 -56 -14 -72t-53 -16h-107q-45 0 -57 21q-11 18 -11 67v434zM141 1480v79q0 63 64 63h59q64 0 64 -63v-79q0 -63 -64 -63h-59q-64 0 -64 63z M389 1480v79q0 63 64 63h59q64 0 64 -63v-79q0 -63 -64 -63h-59q-64 0 -64 63z" />
<glyph unicode="&#x2c6;" horiz-adv-x="485" d="M8 1432q0 9 4 18l70 134q16 31 55 31h211q39 0 55 -31l70 -134q5 -9 5 -18q0 -15 -19 -15h-111q-31 0 -47 20l-59 78l-58 -78q-15 -20 -47 -20h-110q-19 0 -19 15z" />
<glyph unicode="&#x2dc;" horiz-adv-x="502" d="M10 1470v88q0 58 51 58h82q12 0 35 -7l145 -43q19 -5 25 -5q8 0 8 12v11q0 32 33 32h51q52 0 52 -52v-89q0 -58 -52 -58h-82q-11 0 -34 7l-145 43q-19 6 -25 6q-9 0 -9 -13v-11q0 -32 -32 -32h-52q-51 0 -51 53z" />
<glyph unicode="&#x2000;" horiz-adv-x="816" />
<glyph unicode="&#x2001;" horiz-adv-x="1632" />
<glyph unicode="&#x2002;" horiz-adv-x="816" />
<glyph unicode="&#x2003;" horiz-adv-x="1632" />
<glyph unicode="&#x2004;" horiz-adv-x="544" />
<glyph unicode="&#x2005;" horiz-adv-x="408" />
<glyph unicode="&#x2006;" horiz-adv-x="272" />
<glyph unicode="&#x2007;" horiz-adv-x="272" />
<glyph unicode="&#x2008;" horiz-adv-x="204" />
<glyph unicode="&#x2009;" horiz-adv-x="326" />
<glyph unicode="&#x200a;" horiz-adv-x="90" />
<glyph unicode="&#x2010;" horiz-adv-x="432" d="M20 672v102q0 49 12.5 66.5t53.5 17.5h260q42 0 54 -18t12 -66v-102q0 -49 -12.5 -66.5t-53.5 -17.5h-260q-41 0 -53.5 18t-12.5 66z" />
<glyph unicode="&#x2011;" horiz-adv-x="432" d="M20 672v102q0 49 12.5 66.5t53.5 17.5h260q42 0 54 -18t12 -66v-102q0 -49 -12.5 -66.5t-53.5 -17.5h-260q-41 0 -53.5 18t-12.5 66z" />
<glyph unicode="&#x2012;" horiz-adv-x="432" d="M20 672v102q0 49 12.5 66.5t53.5 17.5h260q42 0 54 -18t12 -66v-102q0 -49 -12.5 -66.5t-53.5 -17.5h-260q-41 0 -53.5 18t-12.5 66z" />
<glyph unicode="&#x2013;" horiz-adv-x="674" d="M20 645v121q0 53 11.5 72.5t52.5 19.5h506q40 0 53 -21q10 -18 10 -71v-121q0 -53 -10 -71q-13 -21 -53 -21h-506q-41 0 -53 21q-11 18 -11 71z" />
<glyph unicode="&#x2014;" horiz-adv-x="909" d="M23 645v121q0 53 11 72.5t52 19.5h737q41 0 54 -21q10 -18 10 -71v-121q0 -53 -10 -71q-13 -21 -54 -21h-737q-41 0 -53 21q-10 18 -10 71z" />
<glyph unicode="&#x2018;" horiz-adv-x="231" d="M8 1016v84q0 47 8 71l52 156q12 39 45 39h73q35 0 21 -39l-41 -117q-13 -36 10 -36h14q21 0 27 -16t6 -60v-76q0 -90 -67 -90h-84q-64 0 -64 84z" />
<glyph unicode="&#x2019;" horiz-adv-x="231" d="M8 1200v76q0 90 68 90h84q63 0 63 -84v-84q0 -47 -8 -72l-51 -155q-13 -39 -45 -39h-74q-34 0 -20 39l41 116q12 37 -11 37h-14q-20 0 -26.5 15.5t-6.5 60.5z" />
<glyph unicode="&#x201a;" horiz-adv-x="240" d="M12 76v76q0 90 68 90h84q63 0 63 -84v-84q0 -46 -8 -72l-49 -155q-12 -39 -45 -39h-76q-35 0 -20 39l43 117q13 36 -11 36h-14q-35 0 -35 76z" />
<glyph unicode="&#x201c;" horiz-adv-x="516" d="M12 1016v84q0 47 8 71l52 156q12 39 45 39h73q35 0 21 -39l-41 -117q-13 -36 10 -36h15q20 0 26 -16t6 -60v-76q0 -90 -67 -90h-84q-64 0 -64 84zM289 1016v84q0 46 8 71l49 156q12 39 45 39h76q35 0 20 -39l-43 -117q-13 -36 11 -36h14q35 0 35 -76v-76q0 -90 -68 -90 h-84q-63 0 -63 84z" />
<glyph unicode="&#x201d;" horiz-adv-x="516" d="M12 1200v76q0 90 68 90h84q63 0 63 -84v-84q0 -46 -8 -72l-49 -155q-12 -39 -45 -39h-76q-35 0 -20 39l43 116q13 37 -11 37h-14q-35 0 -35 76zM289 1200v76q0 90 67 90h84q64 0 64 -84v-84q0 -47 -8 -72l-52 -155q-12 -39 -45 -39h-73q-35 0 -21 39l41 116q13 37 -10 37 h-14q-21 0 -27 15.5t-6 60.5z" />
<glyph unicode="&#x201e;" horiz-adv-x="516" d="M12 76v76q0 90 68 90h84q63 0 63 -84v-84q0 -46 -8 -72l-49 -155q-12 -39 -45 -39h-76q-35 0 -20 39l43 117q13 36 -11 36h-14q-35 0 -35 76zM289 76v76q0 90 67 90h84q64 0 64 -84v-84q0 -47 -8 -72l-52 -155q-12 -39 -45 -39h-73q-35 0 -21 39l41 117q13 36 -10 36h-14 q-21 0 -27 15.5t-6 60.5z" />
<glyph unicode="&#x2022;" horiz-adv-x="387" d="M20 635v194q0 83 27 103q19 14 70 14h153q71 0 86 -35q11 -24 11 -82v-194q0 -82 -26 -102q-20 -15 -71 -15h-153q-71 0 -86 35q-11 24 -11 82z" />
<glyph unicode="&#x2026;" horiz-adv-x="899" d="M35 92v58q0 53 10 70q13 22 53 22h115q41 0 53 -22q10 -17 10 -70v-58q0 -53 -10 -70q-12 -22 -53 -22h-115q-40 0 -53 22q-10 17 -10 70zM328 92v58q0 53 10 70q13 22 53 22h115q40 0 53 -22q10 -17 10 -70v-58q0 -53 -10 -70q-13 -22 -53 -22h-115q-40 0 -53 22 q-10 17 -10 70zM621 92v58q0 53 10 70q12 22 53 22h115q40 0 53 -22q10 -17 10 -70v-58q0 -53 -10 -70q-13 -22 -53 -22h-115q-41 0 -53 22q-10 17 -10 70z" />
<glyph unicode="&#x202f;" horiz-adv-x="326" />
<glyph unicode="&#x2039;" horiz-adv-x="205" d="M10 524v264q0 59 27 78l125 92q12 9 19 9q14 0 14 -27v-137q0 -37 -15 -58l-65 -94l59 -84q21 -29 21 -53v-145q0 -34 -27 -21l-125 90q-33 24 -33 86z" />
<glyph unicode="&#x203a;" horiz-adv-x="205" d="M10 369v145q0 24 21 53l59 84l-65 94q-15 21 -15 58v137q0 27 14 27q7 0 19 -9l125 -92q27 -19 27 -78v-264q0 -62 -33 -86l-125 -90q-27 -13 -27 21z" />
<glyph unicode="&#x205f;" horiz-adv-x="408" />
<glyph unicode="&#x2122;" horiz-adv-x="618" d="M10 1288v78h209v-78h-72v-352h-67v352h-70zM270 934l33 432h82l57 -301q2 14 58 301h82l26 -432h-61l-17 307l-61 -307h-61l-58 303l-16 -303h-64z" />
<glyph unicode="&#x25fc;" horiz-adv-x="1365" d="M0 0v1365h1365v-1365h-1365z" />
</font>
</defs>
</svg>
